<?xml version="1.0" standalone="no"?>
<!DOCTYPE svg PUBLIC "-//W3C//DTD SVG 1.1//EN" "http://www.w3.org/Graphics/SVG/1.1/DTD/svg11.dtd" >
<svg xmlns="http://www.w3.org/2000/svg" xmlns:xlink="http://www.w3.org/1999/xlink" version="1.1">
<metadata></metadata>
<defs>
<font id="dosisbold" horiz-adv-x="1073" >
<font-face units-per-em="2048" ascent="1638" descent="-410" />
<missing-glyph horiz-adv-x="409" />
<glyph unicode="&#xfb01;" horiz-adv-x="1159" d="M104 82v1010q0 188 138.5 318t367.5 130q135 0 243 -42t108 -103q0 -39 -27 -96.5t-68 -57.5q-12 0 -84.5 38t-169.5 38q-115 0 -179 -55.5t-64 -159.5v-129h209q33 0 51 -29t18 -67.5t-18.5 -67.5t-50.5 -29h-209v-698q0 -37 -40 -59.5t-95.5 -22.5t-92.5 22.5t-37 59.5 zM795 84v807q0 37 35.5 59.5t93 22.5t96.5 -22.5t39 -59.5v-807q0 -31 -41 -57.5t-94 -26.5q-55 0 -92 25.5t-37 58.5z" />
<glyph unicode="&#xfb02;" horiz-adv-x="1181" d="M104 82v1010q0 207 158 327.5t381 120.5q119 0 237.5 -33.5t180.5 -95.5v-1327q0 -33 -40 -58.5t-95 -25.5q-53 0 -91 25.5t-38 58.5v1194q-59 43 -164 43q-106 0 -185 -58.5t-79 -160.5v-129h209q33 0 51 -29t18 -67.5t-18.5 -67.5t-50.5 -29h-209v-698q0 -37 -40 -59.5 t-95.5 -22.5t-92.5 22.5t-37 59.5z" />
<glyph horiz-adv-x="0" />
<glyph unicode="&#xd;" horiz-adv-x="681" />
<glyph horiz-adv-x="0" />
<glyph horiz-adv-x="0" />
<glyph unicode=" "  horiz-adv-x="409" />
<glyph unicode="&#x09;" horiz-adv-x="409" />
<glyph unicode="&#xa0;" horiz-adv-x="409" />
<glyph unicode="!" horiz-adv-x="450" d="M86 127q0 57 40 98t99 41q57 0 98.5 -41t41.5 -98q0 -55 -41 -97t-99 -42q-59 0 -99 41t-40 98zM96 1393q0 53 36 82.5t91.5 29.5t92 -30.5t36.5 -81.5q0 -135 -14 -450.5t-14 -450.5q0 -37 -32 -57.5t-69 -20.5q-100 0 -100 78q0 135 -13.5 450.5t-13.5 450.5z" />
<glyph unicode="&#x22;" horiz-adv-x="620" d="M57 1505q0 29 29 48.5t68 19.5t69.5 -19.5t30.5 -48.5l-21 -282q0 -27 -20 -47.5t-59 -20.5t-57.5 19.5t-18.5 48.5zM367 1505q0 29 28.5 48.5t67.5 19.5t69.5 -19.5t30.5 -48.5l-20 -282q0 -27 -19.5 -47.5t-60.5 -20.5q-39 0 -57.5 19.5t-18.5 48.5z" />
<glyph unicode="#" horiz-adv-x="1388" d="M47 547q0 43 20.5 72.5t53.5 29.5h198l46 252h-160q-35 0 -55.5 25.5t-20.5 70.5q0 43 20.5 72t53.5 29h200l56 307q6 25 37.5 40t72.5 15q51 0 86 -24.5t35 -75.5l-47 -262h225l56 307q4 25 35.5 40t72.5 15q51 0 86 -24.5t37 -75.5l-49 -262h160q31 0 54 -29t23 -70 t-22.5 -69.5t-52.5 -28.5h-197l-47 -252h160q31 0 55.5 -28.5t24.5 -69.5q0 -43 -25 -71.5t-53 -28.5h-199l-59 -328q-4 -27 -36 -44.5t-69 -17.5q-49 0 -90 27t-41 72l51 291h-221l-59 -328q-4 -27 -37 -44.5t-66 -17.5q-49 0 -89 27t-40 72l50 291h-160q-33 0 -53.5 26.5 t-20.5 69.5zM561 649h221l47 252h-223z" />
<glyph unicode="$" horiz-adv-x="1075" d="M53 256q0 47 35 95t80 48q31 0 73 -33.5t105.5 -72.5t140.5 -47v407q-76 29 -115.5 45.5t-102 53t-95.5 75.5t-58.5 100.5t-25.5 137.5q0 182 112.5 279.5t284.5 119.5v58q0 20 20.5 35.5t49.5 15.5q27 0 48.5 -15.5t21.5 -35.5v-54q129 -4 239.5 -43t110.5 -118 q0 -45 -28.5 -93.5t-80.5 -48.5q-20 0 -91.5 35t-149.5 41v-360q84 -31 139 -59.5t119.5 -79t96.5 -126t32 -174.5q0 -184 -104.5 -294.5t-282.5 -139.5v-63q0 -20 -21.5 -35.5t-48.5 -15.5q-29 0 -49.5 15t-20.5 36v57q-178 4 -306 84t-128 170zM340 1092q0 -61 41 -97.5 t123 -68.5v309q-164 -26 -164 -143zM610 248q154 31 154 168q0 70 -40 112.5t-114 75.5v-356z" />
<glyph unicode="%" horiz-adv-x="1611" d="M51 936v297q0 137 80 200.5t213 63.5t212 -63.5t79 -200.5v-297q0 -137 -79 -200.5t-212 -63.5t-213 63.5t-80 200.5zM229 936q0 -111 115 -111q117 0 117 111v297q0 111 -117 110q-115 0 -115 -110v-297zM350 8q0 14 8 35l738 1493q23 43 73 43q39 0 71 -26.5t32 -65.5 q0 -20 -8 -37l-738 -1487q-18 -45 -80 -45q-41 0 -68.5 27.5t-27.5 62.5zM975 258v297q0 137 80 200.5t213 63.5t212 -63.5t79 -200.5v-297q0 -137 -79 -200.5t-212 -63.5q-293 0 -293 264zM1153 258q0 -111 115 -111q117 0 116 111v297q0 111 -116 111q-115 0 -115 -111 v-297z" />
<glyph unicode="&#x26;" horiz-adv-x="1314" d="M45 430q0 133 74 244.5t182 171.5q-143 162 -143 315q0 172 122.5 271.5t307.5 99.5q172 0 286.5 -79t114.5 -161q0 -45 -39 -84t-86 -39q-31 0 -59.5 24t-50 51.5t-65.5 51t-99 23.5q-80 0 -131 -45t-51 -125q0 -25 6 -50.5t22 -54.5l27 -47q10 -18 37 -51l37 -41 l45 -45l36 -39l330 -348q16 37 25.5 79t11.5 69.5t4 68.5t4 55q4 43 29 62.5t90.5 19.5t89 -29.5t23.5 -92.5q0 -205 -115 -398l166 -172q16 -18 16 -45q0 -41 -37.5 -74.5t-85.5 -33.5q-35 0 -65 30l-127 131q-174 -164 -418 -163q-229 0 -371.5 132t-142.5 318zM313 453 q0 -104 74 -173t203 -69q145 0 229 94l-368 385q-138 -100 -138 -237z" />
<glyph unicode="'" horiz-adv-x="311" d="M57 1505q0 29 29 48.5t68 19.5t69.5 -19.5t30.5 -48.5l-21 -282q0 -27 -20 -47.5t-59 -20.5t-57.5 19.5t-18.5 48.5z" />
<glyph unicode="(" horiz-adv-x="698" d="M98 340v823q0 176 135.5 293t301.5 117q131 0 131 -115q0 -51 -24 -84t-60 -33q-98 0 -159 -54t-61 -124v-823q0 -150 220 -150q84 0 84 -116q0 -57 -29 -86t-109 -29q-172 0 -301 97.5t-129 283.5z" />
<glyph unicode=")" horiz-adv-x="698" d="M33 74q0 117 84 116q217 0 217 150v823q0 70 -59.5 124t-157.5 54q-37 0 -60.5 33t-23.5 84q0 115 131 115q166 0 301 -117t135 -293v-823q0 -186 -129 -283.5t-301 -97.5q-80 0 -108.5 29t-28.5 86z" />
<glyph unicode="*" horiz-adv-x="962" d="M47 1169q0 37 27.5 68t68.5 31q14 0 27 -6l227 -76l-10 227q2 41 28.5 62.5t65.5 21.5t65.5 -21.5t28.5 -62.5l-10 -229l230 78q16 6 26 6q39 0 65.5 -34t26.5 -75q0 -66 -61 -78l-221 -55l149 -213q14 -18 15 -49q0 -41 -33 -68.5t-74 -27.5q-45 0 -67 34l-140 211 l-141 -213q-20 -33 -61 -32q-35 0 -73 26.5t-38 65.5q0 29 22 55l144 201l-228 65q-59 12 -59 88z" />
<glyph unicode="+" horiz-adv-x="909" d="M43 492q0 47 22.5 78.5t59.5 31.5h219v217q0 33 33 58.5t78 25.5q47 0 77.5 -25.5t30.5 -58.5v-217h217q33 0 59.5 -32.5t26.5 -77.5q0 -47 -25.5 -78t-60.5 -31h-217v-219q0 -37 -29.5 -59.5t-78.5 -22.5q-47 0 -79 22.5t-32 59.5v219h-219q-37 0 -59.5 30t-22.5 79z " />
<glyph unicode="," horiz-adv-x="395" d="M59 127q0 57 40 98t97.5 41t98.5 -40t41 -97q0 -35 -113 -299q-16 -35 -55 -35q-31 0 -59.5 19.5t-28.5 50.5q0 14 8 29l47 108q-76 41 -76 125z" />
<glyph unicode="-" horiz-adv-x="845" d="M74 492q0 47 22.5 78.5t59.5 31.5h532q33 0 59.5 -32.5t26.5 -77.5q0 -47 -25.5 -78t-60.5 -31h-532q-37 0 -59.5 30t-22.5 79z" />
<glyph unicode="." horiz-adv-x="391" d="M57 127q0 57 40 98t100 41q55 0 96 -41t41 -98q0 -55 -41 -97t-96 -42q-59 0 -99.5 41t-40.5 98z" />
<glyph unicode="/" horiz-adv-x="991" d="M35 8q0 18 10 35l735 1493q23 43 74 43q39 0 70.5 -26.5t31.5 -65.5q0 -20 -8 -37l-735 -1487q-23 -45 -80 -45q-43 0 -70.5 27.5t-27.5 62.5z" />
<glyph unicode="0" horiz-adv-x="1148" d="M94 457v571q0 244 130 356.5t349.5 112.5t350.5 -112.5t131 -356.5v-571q0 -244 -131 -356.5t-350.5 -112.5t-349.5 112.5t-130 356.5zM360 457q0 -236 213 -236q215 0 215 236v571q0 236 -215 236q-213 0 -213 -236v-571zM479 741q0 43 25.5 69t70.5 26q43 0 69 -26 t26 -69t-26 -69.5t-69 -26.5t-69.5 26.5t-26.5 69.5z" />
<glyph unicode="1" horiz-adv-x="589" d="M6 1200q0 63 51 96l242 185q25 20 55 20q45 0 82 -24.5t37 -61.5v-1331q0 -39 -40 -61.5t-93 -22.5q-55 0 -94 22.5t-39 61.5v1094l-66 -66q-20 -18 -49 -18q-37 0 -61.5 32.5t-24.5 73.5z" />
<glyph unicode="2" horiz-adv-x="1038" d="M55 84v199q0 90 67.5 178t164.5 160l196 141q96 72 164 151.5t68 159.5q0 72 -48.5 127t-142.5 55q-80 0 -131 -45t-51 -135q0 -39 -38 -68.5t-101 -29.5q-121 0 -121 143q0 168 131 272.5t309 104.5q186 0 322.5 -113.5t136.5 -302.5q0 -123 -66.5 -230.5t-163 -182 t-191.5 -138t-161.5 -127t-66.5 -120.5v-50h569q33 0 58.5 -33.5t25.5 -80.5t-25.5 -83t-58.5 -36h-729q-39 0 -78 24.5t-39 59.5z" />
<glyph unicode="3" horiz-adv-x="1067" d="M41 360q0 59 28.5 82t98.5 23q80 0 108.5 -21.5t28.5 -72.5q0 -70 57.5 -110t155.5 -40q115 0 167 52.5t52 168.5v39q0 195 -225 195q-80 0 -80 104.5t80 104.5q90 0 139 40t49 160q0 180 -180 181q-182 0 -182 -138q0 -102 -127 -102q-86 0 -111.5 23.5t-25.5 91.5 q0 59 22.5 117.5t70.5 113.5t140 90t215 35q432 0 432 -367q0 -123 -42 -214t-117 -125q209 -82 209 -310v-39q0 -233 -136.5 -343.5t-355.5 -110.5q-231 0 -351 114.5t-120 257.5z" />
<glyph unicode="4" horiz-adv-x="1028" d="M-2 420q0 27 14 53l486 954q33 70 112 70q41 0 87 -29.5t46 -72.5q0 -14 -10 -35l-393 -787h240v215q0 41 38.5 62.5t94 21.5t94.5 -21.5t39 -62.5v-215h96q39 0 61.5 -36.5t22.5 -87.5q0 -47 -25.5 -85t-58.5 -38h-96v-242q0 -39 -39 -61.5t-94 -22.5q-53 0 -93 22.5 t-40 61.5v242h-492q-39 0 -64.5 25.5t-25.5 68.5z" />
<glyph unicode="5" horiz-adv-x="1042" d="M37 358q0 68 32.5 94.5t100.5 26.5q78 0 105.5 -26.5t27.5 -75.5q0 -74 59.5 -115t151.5 -41q217 0 217 228v38q0 115 -56.5 172.5t-158.5 57.5h-303q-59 0 -83 26.5t-24 77.5q0 8 1.5 25.5t1.5 27.5l53 539q6 84 51 84h631q37 0 58.5 -35t21.5 -82t-21.5 -81.5 t-58.5 -34.5h-461l-25 -338h158q219 0 350 -105.5t131 -333.5v-38q0 -238 -131 -349.5t-346 -111.5q-223 0 -353 109t-130 261z" />
<glyph unicode="6" horiz-adv-x="1124" d="M94 457v571q0 244 134 356.5t360 112.5q227 0 347 -113.5t120 -261.5q0 -61 -30 -85.5t-95 -24.5q-139 0 -139 100q0 70 -60.5 111t-148.5 41q-223 0 -224 -236v-223q88 104 273 104q193 0 308.5 -98t115.5 -326v-28q0 -244 -130 -356.5t-349.5 -112.5t-350.5 112.5 t-131 356.5zM358 440q0 -236 217 -235q213 0 213 235v27q0 233 -215 233t-215 -215v-45z" />
<glyph unicode="7" horiz-adv-x="1019" d="M35 1098v315q0 31 35.5 57.5t81.5 26.5h727q39 0 77.5 -26.5t38.5 -57.5v-233q0 -53 -51 -156l-518 -995q-20 -39 -76 -39q-66 0 -117 39t-51 94q0 27 13 47l534 958v136h-428v-166q0 -37 -41 -61.5t-94 -24.5q-55 0 -93 24.5t-38 61.5z" />
<glyph unicode="8" horiz-adv-x="1091" d="M66 410v24q0 295 243 385q-197 70 -196 316q0 186 116.5 274t317.5 88q199 0 315.5 -88t116.5 -274q0 -246 -197 -316q244 -88 244 -385v-24q0 -217 -131 -319.5t-348 -102.5t-349 102.5t-132 319.5zM332 440q0 -236 215 -235q213 0 213 235v41q0 225 -213 226 q-215 0 -215 -226v-41zM371 1102q0 -178 176 -178t176 178t-176 178t-176 -178z" />
<glyph unicode="9" horiz-adv-x="1126" d="M70 362q0 61 29.5 86t95.5 25q139 0 139 -100q0 -70 60.5 -111t150.5 -41q221 0 221 236v223q-88 -104 -272 -105q-193 0 -308.5 98.5t-115.5 325.5v29q0 244 131 356.5t348 112.5q219 0 351 -113.5t132 -355.5v-571q0 -244 -135 -356.5t-360.5 -112.5t-346 114.5 t-120.5 259.5zM336 1018q0 -233 215 -233.5t215 214.5v45q0 236 -217 236q-213 0 -213 -236v-26z" />
<glyph unicode=":" horiz-adv-x="456" d="M90 127q0 57 40 98t99 41q55 0 96.5 -41t41.5 -98q0 -55 -41 -97t-97 -42q-59 0 -99 41t-40 98zM90 725q0 57 40 98t99 41q55 0 96.5 -41t41.5 -98q0 -55 -41 -97t-97 -42q-59 0 -99 41t-40 98z" />
<glyph unicode=";" horiz-adv-x="458" d="M86 127q0 57 40 98t97.5 41t98 -40t40.5 -97q0 -35 -112 -299q-16 -35 -55 -35q-31 0 -60 19.5t-29 50.5q0 14 9 29l47 108q-76 41 -76 125zM96 725q0 57 40 98t100 41q55 0 96 -41t41 -98q0 -55 -41 -97t-96 -42q-59 0 -99.5 41t-40.5 98z" />
<glyph unicode="&#x3c;" horiz-adv-x="856" d="M39 567q0 63 55 99l529 346q14 8 34 8q43 0 80 -37t37 -88q0 -47 -33 -68l-395 -260l395 -258q33 -20 33 -69q0 -51 -37 -88t-80 -37q-23 0 -34 10l-529 344q-55 37 -55 98z" />
<glyph unicode="=" horiz-adv-x="911" d="M109 295q0 47 22.5 79t58.5 32h529q33 0 59.5 -33t26.5 -78q0 -47 -25.5 -78t-60.5 -31h-529q-37 0 -59 30t-22 79zM109 711q0 47 22.5 78.5t58.5 31.5h529q33 0 59.5 -32.5t26.5 -77.5q0 -47 -25.5 -78t-60.5 -31h-529q-37 0 -59 30t-22 79z" />
<glyph unicode="&#x3e;" horiz-adv-x="854" d="M80 240q0 47 33 69l397 258l-397 260q-33 23 -33 68q0 51 38 88t81 37q23 0 32 -8l531 -346q53 -33 53 -99q0 -61 -53 -98l-531 -344q-10 -10 -32 -10q-43 0 -81 38t-38 87z" />
<glyph unicode="?" horiz-adv-x="890" d="M43 1264q0 86 102.5 163.5t274.5 77.5q193 0 307.5 -98t114.5 -248q0 -51 -15.5 -100t-33 -83t-51 -76t-50.5 -58l-53 -51l-39 -33q-70 -55 -86 -110.5t-16 -160.5q0 -74 -103 -73q-51 0 -72.5 24.5t-21.5 89.5q0 213 123 324l59 49q47 41 71 64.5t47.5 69.5t23.5 95 q0 84 -57.5 130.5t-153.5 46.5q-68 0 -113 -22.5t-61.5 -48.5t-40 -48.5t-54.5 -22.5q-39 0 -70.5 26t-31.5 73zM260 127q0 57 40 98t97.5 41t98.5 -41t41 -98q0 -55 -41 -97t-98.5 -42t-97.5 42t-40 97z" />
<glyph unicode="@" horiz-adv-x="1509" d="M78 428q0 213 73.5 376t234.5 263t392 100q322 0 501 -180t179 -498q0 -203 -76.5 -333.5t-226.5 -130.5q-86 0 -143.5 42t-71.5 107q-109 -139 -256 -139q-104 0 -180 59.5t-76 175.5q0 252 412 252h65v31q0 143 -166 143q-74 0 -133 -27.5t-67 -27.5q-25 0 -44.5 35 t-19.5 63q0 57 91 97.5t202 40.5q139 0 234.5 -72t95.5 -203v-346q14 -98 73 -98q119 0 119 291q0 567 -512 567q-147 0 -253.5 -46t-164 -131t-84 -185.5t-26.5 -223.5q0 -115 23.5 -209t74.5 -173t144.5 -123t224.5 -44q98 0 181 26.5t91 26.5q29 0 47.5 -26.5t18.5 -50.5 q0 -59 -123 -93t-246 -34q-254 0 -431 181t-177 517zM639 274q0 -47 25.5 -72.5t68.5 -25.5q70 0 126 52.5t56 115.5v64h-51q-225 -1 -225 -134z" />
<glyph unicode="A" horiz-adv-x="1177" d="M18 111q0 4 5 20l395 1288q12 43 60 66.5t109.5 23.5t111 -23.5t61.5 -66.5l395 -1288q4 -16 4 -20q0 -45 -55 -78t-113 -33q-76 0 -90 53l-78 273h-469l-78 -273q-14 -53 -90 -53q-59 0 -113.5 32t-54.5 79zM410 535h356l-178 628z" />
<glyph unicode="B" horiz-adv-x="1150" d="M123 82v1331q0 39 35 61.5t82 22.5h395q412 0 412 -360q0 -250 -175 -326q104 -41 157.5 -115.5t53.5 -218.5v-43q0 -227 -110.5 -330.5t-298.5 -103.5h-434q-51 0 -84 24.5t-33 57.5zM387 233h231q199 0 199 224v32q0 115 -50 166.5t-149 51.5h-231v-474zM387 915h229 q80 0 122 47.5t42 129.5q0 80 -44 126t-122 46h-227v-349z" />
<glyph unicode="C" horiz-adv-x="1126" d="M109 457v571q0 242 131 355.5t342 113.5q215 0 351 -106.5t136 -282.5q0 -76 -30.5 -103.5t-102.5 -27.5q-131 0 -133 84q-2 27 -5 46t-16.5 51t-34 53.5t-61.5 37t-96 15.5q-215 0 -215 -236v-571q0 -236 219 -236q66 0 110 20.5t63 58.5t26.5 67.5t9.5 72.5 q6 84 131 84q72 0 103.5 -27.5t31.5 -103.5q0 -184 -136 -294.5t-353 -110.5q-211 0 -341 113.5t-130 355.5z" />
<glyph unicode="D" horiz-adv-x="1187" d="M123 82v1333q0 33 32.5 57.5t84.5 24.5h362q219 0 350 -112.5t131 -356.5v-559q0 -244 -131 -356.5t-350 -112.5h-362q-51 0 -84 24.5t-33 57.5zM389 233h213q215 0 215 236v559q0 236 -215 236h-213v-1031z" />
<glyph unicode="E" horiz-adv-x="1085" d="M123 84v1329q0 39 35 61.5t82 22.5h729q41 0 62.5 -35t21.5 -80q0 -49 -22.5 -83.5t-61.5 -34.5h-580v-410h311q39 0 61.5 -31.5t22.5 -74.5q0 -39 -21.5 -71t-62.5 -32h-311v-412h580q39 0 61.5 -34.5t22.5 -83.5q0 -45 -21.5 -80t-62.5 -35h-729q-47 0 -82 22.5 t-35 61.5z" />
<glyph unicode="F" horiz-adv-x="1040" d="M123 84v1329q0 39 35 61.5t82 22.5h714q41 0 61.5 -33.5t20.5 -81.5q0 -49 -21.5 -83.5t-60.5 -34.5h-565v-410h313q39 0 60.5 -30.5t21.5 -75.5q0 -41 -21.5 -72t-60.5 -31h-313v-561q0 -39 -40 -61.5t-93 -22.5q-55 0 -94 22.5t-39 61.5z" />
<glyph unicode="G" horiz-adv-x="1155" d="M106 457v571q0 242 130.5 355.5t341.5 113.5q217 0 353 -106.5t136 -286.5q0 -74 -31.5 -100.5t-101.5 -26.5q-131 0 -133 84q-6 90 -51 146.5t-162 56.5q-215 0 -215 -236v-571q0 -236 213 -236q102 0 158.5 59.5t56.5 176.5v121h-166q-39 0 -60.5 30.5t-21.5 73.5 q0 41 22.5 72.5t59.5 31.5h348q39 0 61.5 -25.5t22.5 -60.5v-243q0 -244 -131 -356.5t-350 -112.5t-349.5 112.5t-130.5 356.5z" />
<glyph unicode="H" horiz-adv-x="1239" d="M123 84v1331q0 41 39 61.5t94 20.5t94 -20.5t39 -61.5v-534h461v534q0 41 39 61.5t94 20.5t94 -20.5t39 -61.5v-1331q0 -39 -40 -61.5t-93 -22.5q-55 0 -94 22.5t-39 61.5v588h-461v-588q0 -39 -40 -61.5t-93 -22.5q-55 0 -94 22.5t-39 61.5z" />
<glyph unicode="I" horiz-adv-x="512" d="M123 84v1331q0 41 39 61.5t94 20.5t94 -20.5t39 -61.5v-1331q0 -39 -40 -61.5t-93 -22.5q-55 0 -94 22.5t-39 61.5z" />
<glyph unicode="J" horiz-adv-x="1103" d="M27 395q0 74 30.5 101.5t102.5 27.5q125 0 133 -84q8 -219 211 -219q217 0 217 236v807h-209q-39 0 -61.5 34.5t-22.5 83.5q0 47 21.5 81t62.5 34h358q47 0 82 -22.5t35 -61.5v-956q0 -242 -130 -355.5t-341 -113.5q-217 0 -353 109.5t-136 297.5z" />
<glyph unicode="K" horiz-adv-x="1130" d="M123 84v1331q0 41 39 61.5t94 20.5t94 -20.5t39 -61.5v-559l442 602q29 39 74 39q51 0 102.5 -44t51.5 -93q0 -31 -17 -51l-366 -459l446 -680q14 -20 15 -47q0 -49 -50.5 -91t-109.5 -42q-61 0 -92 51l-385 584l-111 -140v-401q0 -39 -40 -61.5t-93 -22.5 q-55 0 -94 22.5t-39 61.5z" />
<glyph unicode="L" horiz-adv-x="991" d="M123 84v1331q0 41 39 61.5t94 20.5t94 -20.5t39 -61.5v-1182h500q37 0 58.5 -34.5t21.5 -81.5t-21.5 -82t-58.5 -35h-649q-47 0 -82 22.5t-35 61.5z" />
<glyph unicode="M" horiz-adv-x="1431" d="M123 84v1280q0 68 38 100.5t95 32.5q76 0 117 -26.5t90 -114.5l252 -459l252 459q49 88 91 114.5t118 26.5q57 0 95 -32.5t38 -100.5v-1280q0 -39 -40 -61.5t-93 -22.5q-55 0 -94.5 22.5t-39.5 61.5v881l-239 -426q-29 -53 -90 -54q-59 0 -88 54l-236 442v-897 q0 -39 -40 -61.5t-93 -22.5q-55 0 -94 22.5t-39 61.5z" />
<glyph unicode="N" horiz-adv-x="1239" d="M123 84v1329q0 41 39 62.5t94 21.5q74 0 113 -26.5t86 -114.5l395 -764v823q0 41 39 61.5t94 20.5t94 -20.5t39 -61.5v-1331q0 -39 -40 -61.5t-93 -22.5q-109 0 -154 84l-440 823v-823q0 -39 -40 -61.5t-93 -22.5q-55 0 -94 22.5t-39 61.5z" />
<glyph unicode="O" horiz-adv-x="1171" d="M106 457v571q0 244 130.5 356.5t349.5 112.5t350 -112.5t131 -356.5v-571q0 -244 -131 -356.5t-350 -112.5t-349.5 112.5t-130.5 356.5zM373 457q0 -236 213 -236q215 0 215 236v571q0 236 -215 236q-213 0 -213 -236v-571z" />
<glyph unicode="P" horiz-adv-x="1140" d="M123 84v1331q0 33 27.5 57.5t72.5 24.5h412q211 0 338 -111.5t127 -349.5v-12q0 -240 -132 -352.5t-350 -112.5h-229v-475q0 -39 -40 -61.5t-93 -22.5q-55 0 -94 22.5t-39 61.5zM389 768h229q102 0 159 59.5t57 176.5v24q0 117 -56.5 176.5t-159.5 59.5h-229v-496z" />
<glyph unicode="Q" horiz-adv-x="1171" d="M106 457v571q0 244 130.5 356.5t349.5 112.5t350 -112.5t131 -356.5v-571q0 -217 -106.5 -330t-290.5 -133v-133q0 -39 -24.5 -61.5t-59.5 -22.5t-60.5 22.5t-25.5 61.5v133q-394 43 -394 463zM373 457q0 -178 127 -219v108q0 41 25.5 61.5t60.5 20.5t59.5 -20.5 t24.5 -61.5v-108q131 43 131 219v571q0 117 -56.5 176.5t-158.5 59.5q-213 0 -213 -236v-571z" />
<glyph unicode="R" horiz-adv-x="1167" d="M123 84v1331q0 33 24.5 57.5t61.5 24.5h405q485 0 486 -428q0 -168 -73 -270.5t-196 -139.5l269 -497q10 -12 10 -33q0 -51 -53 -95t-112.5 -44t-92.5 63l-291 565h-172v-534q0 -39 -39 -61.5t-94 -22.5q-53 0 -93 22.5t-40 61.5zM389 827h225q219 0 220 217 q0 219 -220 220h-225v-437z" />
<glyph unicode="S" horiz-adv-x="1069" d="M49 236q0 47 36 95t81 48q27 0 60.5 -24.5t65.5 -54.5t91 -54.5t131 -24.5q98 0 163.5 45t65.5 133q0 61 -35.5 109.5t-94 80.5t-128 61.5t-140.5 66.5t-129 83t-94 122.5t-36 175.5q0 109 44 191.5t118 128.5t157.5 67.5t178.5 21.5q53 0 112.5 -7t126 -23.5t108.5 -51 t42 -82.5q0 -45 -29 -93t-78 -48q-18 0 -100 39t-182 39q-111 0 -171.5 -42t-60.5 -116q0 -59 49.5 -103t122 -71.5t157.5 -69.5t157.5 -91.5t122 -142.5t49.5 -218q0 -213 -134.5 -328.5t-353.5 -115.5q-195 0 -334 80t-139 174z" />
<glyph unicode="T" horiz-adv-x="1081" d="M25 1378q0 47 21.5 83t62.5 36h866q41 0 62.5 -36t21.5 -83q0 -49 -22.5 -85t-61.5 -36h-299v-1173q0 -39 -40 -61.5t-93 -22.5q-55 0 -94 22.5t-39 61.5v1173h-301q-39 0 -61.5 35t-22.5 86z" />
<glyph unicode="U" horiz-adv-x="1216" d="M117 457v958q0 41 39 61.5t94 20.5t94 -20.5t39 -61.5v-958q0 -236 225.5 -236t225.5 236v958q0 41 38.5 61.5t94 20.5t94.5 -20.5t39 -61.5v-958q0 -242 -134.5 -355.5t-357.5 -113.5t-357 112.5t-134 356.5z" />
<glyph unicode="V" horiz-adv-x="1177" d="M18 1386q0 47 54.5 79t113.5 32q76 0 90 -53l314 -1110l311 1110q14 53 90 53q57 0 112.5 -32.5t55.5 -78.5q0 -4 -4 -20l-393 -1288q-12 -43 -61.5 -66.5t-110.5 -23.5q-141 0 -172 90l-395 1288q-5 16 -5 20z" />
<glyph unicode="W" horiz-adv-x="1808" d="M18 1391q0 43 55.5 74.5t114.5 31.5q74 0 88 -53l324 -1110l174 713q18 73 128 73h3q111 0 129 -73l174 -713l324 1110q14 53 88 53q59 0 114.5 -31.5t55.5 -74.5q0 -12 -4 -25l-406 -1288q-31 -90 -174 -90q-61 0 -110 23.5t-60 66.5l-131 553l-133 -553 q-10 -43 -59 -66.5t-111 -23.5q-63 0 -112.5 23.5t-61.5 66.5l-405 1288q-5 13 -5 25z" />
<glyph unicode="X" horiz-adv-x="1148" d="M27 123q0 20 16 49l354 578l-342 575q-18 31 -18 57q0 51 54 88t116 37q57 0 88 -57l278 -502l279 502q33 57 90 57q61 0 115.5 -36.5t54.5 -88.5q0 -27 -18 -57l-342 -575l354 -578q14 -27 14 -49q0 -53 -57 -93t-117 -40q-49 0 -72 43l-301 526l-299 -526 q-25 -43 -73 -43q-57 0 -115.5 40t-58.5 93z" />
<glyph unicode="Y" horiz-adv-x="1175" d="M18 1386q0 45 58.5 78t118.5 33q55 0 81 -53l312 -592l313 592q29 53 80 53q59 0 117.5 -32.5t58.5 -78.5q0 -16 -6 -26l-422 -733q-8 -12 -8 -27v-516q0 -39 -39 -61.5t-94 -22.5q-53 0 -93 22.5t-40 61.5v516q0 18 -6 27l-424 733q-7 16 -7 26z" />
<glyph unicode="Z" horiz-adv-x="1069" d="M29 74q0 45 28 92l609 1098h-519q-39 0 -60 33.5t-21 82.5q0 47 20 82t61 35h779q80 0 80 -72q0 -45 -31 -96l-606 -1096h589q37 0 60.5 -35.5t23.5 -80.5t-23.5 -81t-60.5 -36h-849q-80 0 -80 74z" />
<glyph unicode="[" horiz-adv-x="698" d="M115 41v1448q0 39 34.5 61.5t81.5 22.5h353q41 0 61.5 -34t20.5 -81q0 -49 -22.5 -84t-59.5 -35h-203v-1149h203q37 0 59.5 -34.5t22.5 -83.5q0 -47 -20.5 -81t-61.5 -34h-353q-47 0 -81.5 22.5t-34.5 61.5z" />
<glyph unicode="\" horiz-adv-x="757" d="M39 1456q0 35 29.5 62.5t70.5 27.5q59 0 78 -53l498 -1376q4 -8 4 -25q0 -37 -30 -65.5t-68 -28.5q-59 0 -80 57l-498 1372q-4 21 -4 29z" />
<glyph unicode="]" horiz-adv-x="700" d="M33 72q0 49 22.5 83.5t61.5 34.5h202v1149h-202q-39 0 -61.5 35t-22.5 84q0 45 21.5 80t62.5 35h350q47 0 83 -22.5t36 -61.5v-1448q0 -39 -36 -61.5t-83 -22.5h-350q-41 0 -62.5 35t-21.5 80z" />
<glyph unicode="^" horiz-adv-x="583" d="M0 1262q0 53 45 75l213 115q16 10 35 10q14 0 35 -10l213 -113q43 -27 43 -79q0 -31 -16.5 -55.5t-41.5 -24.5q-10 0 -20 6l-213 114l-213 -114q-12 -6 -23 -6q-25 0 -41 24.5t-16 57.5z" />
<glyph unicode="_" horiz-adv-x="647" d="M-86 -111q0 47 22.5 79t59.5 32h655q33 0 59.5 -33t26.5 -78q0 -47 -25.5 -77.5t-60.5 -30.5h-655q-37 0 -59.5 29.5t-22.5 78.5z" />
<glyph unicode="`" horiz-adv-x="413" d="M0 1362q0 37 24.5 68.5t57.5 31.5q6 0 27 -4l270 -131q35 -16 35 -63q0 -35 -24.5 -68t-57.5 -33q-8 0 -29 8l-266 129q-37 17 -37 62z" />
<glyph unicode="a" horiz-adv-x="964" d="M45 254q0 166 123 233.5t354 67.5h84v27q0 76 -44 132t-136 56t-157.5 -31.5t-75.5 -31.5q-41 0 -66 40.5t-25 90.5q0 59 105.5 103t222.5 44q223 0 331.5 -113.5t108.5 -285.5v-502q0 -35 -36.5 -59.5t-92.5 -24.5q-51 0 -84.5 24.5t-33.5 59.5v59q-140 -161 -310 -161 h-2q-117 0 -191.5 69.5t-74.5 202.5zM309 289q0 -55 30 -83t79 -28q66 0 127 61.5t61 135.5v43h-31q-125 0 -195.5 -25.5t-70.5 -103.5z" />
<glyph unicode="b" horiz-adv-x="1062" d="M104 84v1374q0 37 36 59.5t93.5 22.5t96.5 -22.5t39 -59.5v-629q35 66 103.5 111t158.5 45q150 0 257 -123t107 -293v-168q0 -166 -108.5 -292.5t-249.5 -126.5q-92 0 -172 48t-113 113v-59q0 -31 -35.5 -57.5t-83.5 -26.5q-55 0 -92 25.5t-37 58.5zM369 365 q0 -39 56 -95.5t128 -56.5t125 58.5t53 129.5v168q0 72 -53 128.5t-127 56.5q-70 0 -126 -51.5t-56 -133.5v-204z" />
<glyph unicode="c" horiz-adv-x="888" d="M70 401v164q0 188 110.5 304t331.5 116q139 0 233.5 -49t94.5 -111q0 -43 -31 -86t-74 -43q-12 0 -72.5 29t-130.5 29q-199 0 -198 -189v-164q0 -188 201 -188q70 0 129 30.5t75 30.5q49 0 81 -40.5t32 -83.5q0 -63 -99.5 -115.5t-238.5 -52.5q-223 0 -333.5 114.5 t-110.5 304.5z" />
<glyph unicode="d" horiz-adv-x="1064" d="M68 401v168q0 170 107.5 293t256.5 123q90 0 158.5 -45t105.5 -111v629q0 37 38 59.5t95.5 22.5t94.5 -22.5t37 -59.5v-1374q0 -33 -38 -58.5t-94 -25.5q-47 0 -82.5 26.5t-35.5 57.5v59q-33 -66 -112 -113.5t-173 -47.5q-141 0 -249.5 126.5t-108.5 292.5zM332 401 q0 -72 53 -130t125 -58t129 56.5t57 95.5v204q0 82 -56 133.5t-128 51.5q-74 0 -127 -56.5t-53 -128.5v-168z" />
<glyph unicode="e" horiz-adv-x="991" d="M66 401v174q0 168 131 289t317 121q174 0 298 -109.5t124 -275.5q0 -61 -15.5 -101t-47 -56.5t-58.5 -20.5t-70 -4h-415v-31q0 -88 65.5 -142.5t173.5 -54.5q78 0 154 39t98 39q43 0 72 -40t29 -76q0 -57 -103.5 -113.5t-257.5 -56.5q-219 0 -357 115.5t-138 303.5z M330 573h299q33 0 46 11.5t13 44.5q0 72 -52 117t-128 45q-72 0 -125 -44.5t-53 -115.5v-58z" />
<glyph unicode="f" horiz-adv-x="696" d="M104 82v1057q0 170 105.5 285.5t255.5 115.5h121q47 0 73.5 -32.5t26.5 -77.5q0 -47 -26.5 -80t-73.5 -33h-66q-68 0 -109.5 -41t-41.5 -109v-194h249q31 0 49.5 -29t18.5 -67.5t-18.5 -67.5t-49.5 -29h-249v-698q0 -37 -40 -59.5t-95.5 -22.5t-92.5 22.5t-37 59.5z" />
<glyph unicode="g" horiz-adv-x="962" d="M31 -164q0 141 149 217q-86 41 -86 131t105 160q-127 98 -127 260v43q0 150 110.5 244t288.5 94q135 0 234 -59q61 139 124 139q47 0 76 -26.5t29 -55.5q0 -33 -33 -57q-76 -53 -96 -78q72 -84 72 -201v-43q0 -147 -114 -244.5t-292 -97.5q-74 0 -133 19q-25 -20 -25 -41 q0 -35 63.5 -51.5t155 -27.5t181.5 -33t153.5 -87.5t63.5 -171.5q0 -160 -129 -241t-318 -81q-190 0 -321 78t-131 211zM281 -137q0 -68 57 -107t141 -39t139.5 39t55.5 105q0 29 -10.5 50t-36 35.5t-45 24t-62.5 16.5t-62.5 9t-66.5 8q-110 -51 -110 -141zM328 606 q0 -80 39 -132t108 -52q68 0 107 50t39 132v43q0 76 -40 127t-107.5 51t-106.5 -50t-39 -128v-41z" />
<glyph unicode="h" d="M104 84v1374q0 37 36 59.5t96 22.5q55 0 94 -22.5t39 -59.5v-629q31 66 98.5 111t159.5 45q141 0 246.5 -123t105.5 -293v-485q0 -39 -40 -61.5t-93 -22.5q-51 0 -91 22.5t-40 61.5v485q0 70 -53.5 127.5t-124.5 57.5q-68 0 -118 -51.5t-50 -133.5v-485q0 -31 -40 -57.5 t-93 -26.5q-55 0 -93.5 25.5t-38.5 58.5z" />
<glyph unicode="i" horiz-adv-x="468" d="M88 1319q0 53 42 91t103 38q59 0 101.5 -38t42.5 -91q0 -51 -42 -90t-102 -39q-61 0 -103 39t-42 90zM102 84v807q0 37 37 59.5t94.5 22.5t95.5 -22.5t38 -59.5v-807q0 -31 -40 -57.5t-94 -26.5q-55 0 -93 25.5t-38 58.5z" />
<glyph unicode="j" horiz-adv-x="473" d="M-78 -344q0 51 29 83t72 32q51 0 66 41t15 122v957q0 37 37 59.5t92 22.5q57 0 96.5 -22.5t39.5 -59.5v-957q0 -176 -80 -281.5t-230 -105.5q-137 0 -137 109zM90 1319q0 53 42 91t104 38q59 0 101 -38t42 -91q0 -51 -42 -90t-101 -39q-61 0 -103.5 39t-42.5 90z" />
<glyph unicode="k" horiz-adv-x="1007" d="M104 84v1374q0 37 36 59.5t93.5 22.5t96.5 -22.5t39 -59.5v-858l385 363q25 20 53 20q43 0 86 -41t43 -86q0 -27 -23 -49l-241 -219l301 -430q14 -20 14 -43q0 -45 -50 -88t-99 -43q-41 0 -66 34l-276 408l-127 -117v-225q0 -31 -41 -57.5t-95 -26.5q-55 0 -92 25.5 t-37 58.5z" />
<glyph unicode="l" horiz-adv-x="505" d="M121 84v1374q0 37 36 59.5t95 22.5q55 0 94 -22.5t39 -59.5v-1374q0 -31 -40 -57.5t-93 -26.5q-55 0 -93 25.5t-38 58.5z" />
<glyph unicode="m" horiz-adv-x="1644" d="M102 84v807q0 37 36 59.5t95 22.5q49 0 83 -22.5t34 -59.5v-62q88 156 271 156q86 0 154.5 -56.5t101.5 -148.5q51 100 134 152.5t175 52.5q147 0 255.5 -112.5t108.5 -303.5v-485q0 -31 -40 -57.5t-93 -26.5q-51 0 -91 26.5t-40 57.5v485q0 86 -49 136.5t-117 50.5 q-66 0 -114 -50.5t-48 -134.5v-489q0 -41 -38.5 -61.5t-94.5 -20.5q-51 0 -91 21.5t-40 60.5v487q0 82 -50 133.5t-118 51.5q-66 0 -112.5 -49.5t-46.5 -135.5v-485q0 -31 -40 -57.5t-94 -26.5q-55 0 -93 25.5t-38 58.5z" />
<glyph unicode="n" horiz-adv-x="1071" d="M102 84v807q0 37 36 59.5t95 22.5q49 0 83 -22.5t34 -59.5v-62q33 66 105.5 111t169.5 45q141 0 246.5 -123t105.5 -293v-485q0 -39 -40 -61.5t-93 -22.5q-51 0 -91 22.5t-40 61.5v485q0 72 -53.5 128.5t-124.5 56.5q-68 0 -118 -51.5t-50 -133.5v-485q0 -31 -40 -57.5 t-94 -26.5q-55 0 -93 25.5t-38 58.5z" />
<glyph unicode="o" horiz-adv-x="1019" d="M66 401v168q0 168 131 292t313 124q178 0 311 -123t133 -293v-168q0 -166 -133 -292.5t-311 -126.5t-311 126.5t-133 292.5zM330 401q0 -74 53 -131t127 -57q72 0 126 57.5t54 130.5v168q0 70 -54 127.5t-126 57.5q-74 0 -127 -56.5t-53 -128.5v-168z" />
<glyph unicode="p" horiz-adv-x="1062" d="M104 -369v1260q0 37 36 59.5t89.5 22.5t88 -22.5t34.5 -59.5v-62q39 66 112 111t165 45q154 0 260 -122t106 -294v-168q0 -166 -108.5 -292.5t-249.5 -126.5q-88 0 -163 48t-105 113v-512q0 -33 -40 -58.5t-95.5 -25.5t-92.5 25.5t-37 58.5zM369 365q0 -41 55 -96.5 t125 -55.5q72 0 127 58.5t55 129.5v168q0 72 -55 128.5t-131 56.5q-70 0 -123 -51.5t-53 -133.5v-204z" />
<glyph unicode="q" horiz-adv-x="1064" d="M68 401v168q0 172 107.5 294t260.5 122q92 0 165 -45t110 -111v62q0 37 34.5 59.5t88 22.5t90.5 -22.5t37 -59.5v-1260q0 -33 -38 -58.5t-93.5 -25.5t-94.5 26t-39 58v512q-33 -68 -107.5 -114.5t-162.5 -46.5q-141 0 -249.5 126.5t-108.5 292.5zM332 401q0 -72 55 -130 t127 -58t127 55.5t55 96.5v204q0 82 -54 133.5t-124 51.5q-76 0 -131 -56.5t-55 -128.5v-168z" />
<glyph unicode="r" horiz-adv-x="772" d="M102 84v807q0 37 36 59.5t93 22.5q51 0 85 -22.5t34 -59.5v-84q33 72 102.5 125t149.5 53h64q37 0 66.5 -35t29.5 -80q0 -47 -30 -81.5t-66 -34.5h-64q-94 0 -164.5 -84t-70.5 -219v-367q0 -31 -41 -57.5t-95 -26.5q-55 0 -92 25.5t-37 58.5z" />
<glyph unicode="s" horiz-adv-x="847" d="M47 158q0 37 26.5 76.5t61.5 39.5q23 0 56.5 -22.5t89 -46t131.5 -23.5q149 0 149 87q0 50 -50 79t-121 47.5t-142.5 44t-121.5 86t-50 154.5q0 125 88 215t278 90q127 0 226.5 -39t99.5 -94q0 -35 -27.5 -81t-68.5 -46q-16 0 -89 29.5t-137 29.5q-70 0 -106.5 -28.5 t-36.5 -63.5t37 -57.5t91 -34.5t117.5 -33.5t118 -50.5t91.5 -89t37 -146q0 -139 -99.5 -219t-277.5 -80q-154 0 -262.5 53t-108.5 123z" />
<glyph unicode="t" horiz-adv-x="710" d="M100 332v993q0 35 41 58.5t90 23.5q53 0 93.5 -23.5t40.5 -58.5v-352h241q31 0 49.5 -29t18.5 -67.5t-18.5 -67.5t-49.5 -29h-241v-448q0 -59 25.5 -84t88.5 -25h80q53 0 83 -32.5t30 -77.5q0 -47 -30 -80t-83 -33h-80q-379 0 -379 332z" />
<glyph unicode="u" d="M92 397v492q0 31 40 57.5t93 26.5q51 0 91 -26.5t40 -57.5v-492q0 -72 53.5 -128t127 -56t126 56.5t52.5 127.5v494q0 33 40 57.5t93 24.5q57 0 94 -24.5t37 -57.5v-494q0 -166 -131 -290.5t-311.5 -124.5t-312.5 124.5t-132 290.5z" />
<glyph unicode="v" horiz-adv-x="985" d="M12 872q0 43 60.5 78t115.5 35q59 0 78 -45l228 -594l227 590q18 49 76 49q49 0 112.5 -36t63.5 -79q0 -18 -8 -34l-351 -811q-23 -47 -121 -47q-1 0 -2 -1q-96 0 -116 48l-352 811q-11 13 -11 36z" />
<glyph unicode="w" horiz-adv-x="1419" d="M14 874q0 45 57.5 77t114.5 32q59 0 76 -43l205 -582l154 506q15 54 89 54h2q72 0 89 -54l151 -508l207 584q16 43 76 43q55 0 112.5 -32.5t57.5 -78.5q0 -23 -8 -36l-316 -811q-18 -47 -104 -48q-90 0 -109 48l-157 446l-156 -444q-18 -49 -113 -50q-84 0 -102 50 l-315 809q-11 20 -11 38z" />
<glyph unicode="x" horiz-adv-x="962" d="M43 113q0 25 16 45l242 338l-225 313q-16 23 -17 43q0 45 61.5 89t115.5 44q41 0 59 -29l186 -299l189 297q20 31 61 31q51 0 112.5 -44t61.5 -89q0 -16 -16 -43l-227 -315l243 -336q16 -16 17 -45q0 -43 -59.5 -87t-112.5 -44q-41 0 -62 28l-207 312l-205 -312 q-20 -29 -63 -29q-1 1 -2 1q-45 0 -106.5 44t-61.5 87z" />
<glyph unicode="y" horiz-adv-x="974" d="M12 -340q0 111 68 111q96 0 189 69.5t104 231.5l-353 753q-8 20 -8 35q0 49 60.5 88t115.5 39q61 0 76 -45l246 -612l199 612q14 45 69 45q53 0 116.5 -40t63.5 -91q0 -16 -6 -31l-299 -764l-35 -90q-25 -70 -36 -96.5t-38.5 -82.5t-49 -81.5t-60.5 -63.5t-79 -55.5 t-97 -31t-125 -13.5q-59 0 -90 22.5t-31 90.5z" />
<glyph unicode="z" horiz-adv-x="894" d="M43 94q0 53 45 107l404 557h-355q-33 0 -55.5 31.5t-22.5 76.5t21.5 76t56.5 31h602q37 0 61.5 -23.5t24.5 -66.5q0 -57 -41 -111l-405 -557h401q33 0 55.5 -31.5t22.5 -77t-21.5 -76t-56.5 -30.5h-647q-45 0 -67.5 27.5t-22.5 66.5z" />
<glyph unicode="{" horiz-adv-x="739" d="M43 791q0 43 19.5 65.5t42 26.5t42 17t19.5 40q0 18 -16.5 131t-16.5 150q0 137 134 244.5t296 107.5q145 0 146 -117q0 -43 -21.5 -75.5t-60.5 -32.5q-78 0 -153 -42t-75 -120q0 -27 16.5 -141.5t16.5 -137.5q0 -39 -25.5 -75.5t-48.5 -45.5q25 -6 49.5 -41.5 t24.5 -76.5q0 -27 -16.5 -175.5t-16.5 -173.5q0 -72 74 -103.5t154 -31.5q43 0 62.5 -34.5t19.5 -75.5q0 -115 -150 -115q-166 0 -296 94t-130 236q0 39 16.5 184t16.5 164q0 27 -19.5 41t-42 19t-42 28t-19.5 66z" />
<glyph unicode="|" horiz-adv-x="493" d="M115 41v1450q0 35 36.5 58.5t94.5 23.5q55 0 94 -23.5t39 -58.5v-1450q0 -31 -40 -57.5t-93 -26.5q-55 0 -93 25.5t-38 58.5z" />
<glyph unicode="}" horiz-adv-x="739" d="M31 74q0 41 19.5 75.5t64.5 34.5q78 0 151.5 32t73.5 103q0 25 -16.5 173.5t-16.5 175.5q0 41 25.5 75.5t48.5 42.5q-23 8 -48.5 45t-25.5 76q0 23 16.5 137.5t16.5 141.5q0 78 -73.5 120t-151.5 42q-39 0 -61.5 32.5t-22.5 75.5q0 49 34.5 83t112.5 34q162 0 295 -107.5 t133 -244.5q0 -37 -16.5 -150t-16.5 -131q0 -27 19.5 -40t42 -17t42 -26.5t19.5 -65.5t-19.5 -66t-42 -28t-42 -19t-19.5 -41q0 -18 16.5 -163.5t16.5 -184.5q0 -141 -130 -235.5t-296 -94.5q-149 0 -149 115z" />
<glyph unicode="~" horiz-adv-x="841" d="M72 504q0 57 36.5 91t70.5 41t69 7q59 0 147 -29.5t144 -29.5q49 0 99 24.5t67 24.5q35 0 51 -31t16 -55q0 -45 -19.5 -75t-51 -43t-56 -17t-47.5 -4q-72 0 -158 29.5t-133 29.5q-49 0 -100 -24.5t-68 -24.5q-35 0 -51 30.5t-16 55.5z" />
<glyph unicode="&#xa1;" horiz-adv-x="452" d="M86 1366q0 55 41 97t98.5 42t98.5 -42t41 -97q0 -59 -41 -100t-98.5 -41t-98.5 42t-41 99zM98 98q0 137 14.5 452.5t14.5 450.5q0 37 31.5 57.5t66.5 20.5q45 0 74 -19.5t29 -58.5q0 -135 13 -450t13 -453q0 -51 -35.5 -80.5t-93.5 -29.5q-53 0 -90 29.5t-37 80.5z" />
<glyph unicode="&#xa2;" horiz-adv-x="884" d="M49 739v37q0 174 93.5 287t279.5 131v158q0 31 22.5 51t55 20t55.5 -20.5t23 -50.5v-162q106 -14 175.5 -56t69.5 -96q0 -43 -30.5 -81.5t-75.5 -38.5q-14 0 -56.5 22.5t-82.5 30.5v-424q41 8 81.5 32.5t57.5 24.5q51 0 82.5 -38t31.5 -81q0 -53 -72.5 -99t-180.5 -62 v-168q0 -29 -24 -52.5t-54 -23.5q-33 0 -55.5 23.5t-22.5 52.5v166q-186 18 -279.5 130.5t-93.5 286.5zM281 739q0 -162 141 -196v428q-141 -35 -141 -195v-37z" />
<glyph unicode="&#xa3;" horiz-adv-x="1107" d="M43 117q0 47 21.5 81.5t58.5 34.5h108l72 517h-115q-31 0 -49 28.5t-18 67.5t18.5 67.5t48.5 28.5h142l28 195q27 188 178.5 312t344.5 124h71q41 0 65.5 -35t24.5 -80q0 -47 -24.5 -82t-65.5 -35h-82q-106 0 -170.5 -57t-76.5 -147l-29 -195h246q33 0 50 -28.5t17 -67.5 t-17.5 -67.5t-49.5 -28.5h-273l-73 -517h469q37 0 58 -34.5t21 -81.5t-21.5 -82t-57.5 -35h-840q-37 0 -58.5 35t-21.5 82z" />
<glyph unicode="&#xa4;" horiz-adv-x="925" d="M98 678q0 14 13 27l57 53q-68 94 -68 208.5t66 209.5l-53 51q-10 10 -11 26q0 23 17.5 40.5t40.5 17.5q12 0 26 -11l50 -47q102 82 227 82q121 0 223 -80l51 48q12 10 29 10q20 0 38.5 -17.5t18.5 -40.5q0 -14 -12 -26l-53 -51q70 -92 69 -209q0 -119 -71 -213l55 -51 q12 -12 12 -27q0 -23 -18.5 -40t-38.5 -17q-16 0 -29 10l-51 47q-100 -84 -223 -84q-121 0 -227 86l-52 -49q-12 -10 -28 -10q-23 0 -40.5 17t-17.5 40zM246 967q0 -88 63.5 -157t153.5 -69t154.5 68t64.5 156t-64.5 155.5t-154.5 67.5t-153.5 -66.5t-63.5 -154.5z" />
<glyph unicode="&#xa5;" horiz-adv-x="1153" d="M43 1399q0 39 52 73.5t106 34.5q43 0 75 -61l299 -555l302 555q33 61 75 61q51 0 104.5 -35.5t53.5 -72.5q0 -16 -8 -33l-336 -545h133q33 0 59.5 -27.5t26.5 -66.5t-26.5 -65.5t-59.5 -26.5h-190v-131h190q33 0 59.5 -27.5t26.5 -66.5q0 -41 -25.5 -67t-60.5 -26h-190 v-233q0 -39 -39 -61.5t-94.5 -22.5t-94.5 22.5t-39 61.5v233h-184q-39 0 -61.5 25t-22.5 66q0 43 23.5 69.5t60.5 26.5h184v131h-184q-39 0 -61.5 24.5t-22.5 65.5q0 43 23.5 69.5t60.5 26.5h123l-330 545q-8 10 -8 33z" />
<glyph unicode="&#xa6;" horiz-adv-x="489" d="M113 41v512q0 37 36.5 60.5t94.5 23.5q55 0 94 -23.5t39 -60.5v-512q0 -31 -40 -57.5t-93 -26.5q-55 0 -93 25.5t-38 58.5zM113 979v512q0 35 36.5 58.5t94.5 23.5q55 0 94 -23.5t39 -58.5v-512q0 -33 -40 -59.5t-93 -26.5q-55 0 -93 26.5t-38 59.5z" />
<glyph unicode="&#xa7;" horiz-adv-x="976" d="M82 203q0 57 28.5 80.5t84.5 23.5q115 0 114 -74q0 -154 156 -153q86 0 128 40t42 107.5t-56.5 111.5t-136.5 77t-159.5 77t-136 135t-56.5 226v219q0 121 37 209t99.5 132t127 63.5t135.5 19.5q176 0 273.5 -101.5t97.5 -240.5q0 -59 -25.5 -81.5t-74.5 -22.5 q-113 0 -113 88q0 57 -32.5 100t-114.5 43q-78 0 -122 -42t-44 -112q0 -68 58.5 -111.5t142 -76.5t166.5 -77t141.5 -135t58.5 -226v-219q0 -119 -38 -205t-102.5 -131t-133 -65.5t-146.5 -20.5q-186 0 -292.5 103.5t-106.5 238.5zM309 801q0 -96 65.5 -148.5t168 -89.5 t141.5 -71v43q0 96 -65.5 148t-168 89t-141.5 72v-43z" />
<glyph unicode="&#xa8;" horiz-adv-x="514" d="M0 1290q0 43 30.5 75t73.5 32t73 -32t30 -75t-30 -75.5t-73 -32.5t-73.5 32.5t-30.5 75.5zM305 1290q0 43 31 75t76 32q41 0 71.5 -32t30.5 -75t-30.5 -75.5t-71.5 -32.5q-43 0 -75 32.5t-32 75.5z" />
<glyph unicode="&#xa9;" horiz-adv-x="1413" d="M78 733q0 164 58.5 296t152.5 211t203.5 121t220 42t219 -42t200 -121t147.5 -209t56 -290q0 -164 -58 -296t-152.5 -210.5t-204 -120.5t-220 -42t-219 42t-200 120.5t-147.5 208.5t-56 290zM205 733q0 -236 135 -385t360.5 -149t366.5 150.5t141 391.5q0 236 -136 385.5 t-359 149.5q-225 0 -366.5 -150.5t-141.5 -392.5zM465 610v283q0 135 67.5 198.5t176.5 63.5q111 0 181.5 -59.5t70.5 -157.5q0 -43 -16.5 -58.5t-55.5 -15.5q-72 0 -74 47q-6 111 -100 111q-104 0 -105 -129v-283q0 -129 105 -129q33 0 53 11.5t29.5 33t12.5 37t5 39.5 q2 45 72 45q41 0 57.5 -15.5t16.5 -58.5q0 -102 -71 -163.5t-181 -61.5q-109 0 -176.5 63.5t-67.5 198.5z" />
<glyph unicode="&#xaa;" horiz-adv-x="684" d="M53 1067q0 111 83 156t237 45h55v18q0 51 -28.5 89t-90.5 38q-63 0 -106 -22.5t-49 -22.5q-29 0 -45.5 27.5t-16.5 62.5q0 39 70.5 68.5t148.5 29.5q150 0 221.5 -76.5t71.5 -191.5v-334q0 -23 -24.5 -39t-63.5 -16q-33 0 -55.5 16.5t-22.5 38.5v41q-92 -109 -200 -108 q-80 0 -132.5 45t-52.5 135zM231 1092q0 -74 72 -74q45 0 85 40t40 91v27h-43q-154 0 -154 -84z" />
<glyph unicode="&#xab;" horiz-adv-x="1021" d="M49 565.5q0 14.5 5 27.5t20 38l22 39l150 278q18 35 76 35q61 0 112 -45t51 -88q0 -14 -6 -25l-137 -258l137 -256q6 -12 6 -26q0 -45 -51 -89t-115 -44q-55 0 -73 34l-150 279q-8 16 -22.5 38.5t-19.5 35t-5 27zM514 565.5q0 14.5 5 27.5t20 38l22 39l152 278 q16 35 73 35q63 0 113.5 -44t50.5 -89q0 -14 -6 -25l-137 -258l137 -256q6 -12 6 -26q0 -43 -51 -88t-113 -45q-57 0 -73 34l-152 279q-8 16 -22.5 38.5t-19.5 35t-5 27z" />
<glyph unicode="&#xac;" horiz-adv-x="1017" d="M66 492q0 47 22.5 78.5t58.5 31.5h684q33 0 60 -32.5t27 -77.5v-279q0 -33 -39 -58.5t-94.5 -25.5t-93.5 25.5t-38 58.5v170h-506q-37 0 -59 30t-22 79z" />
<glyph unicode="&#xad;" horiz-adv-x="968" d="M74 492q0 47 22.5 78.5t59.5 31.5h655q33 0 59.5 -32.5t26.5 -77.5q0 -47 -25.5 -78t-60.5 -31h-655q-37 0 -59.5 30t-22.5 79z" />
<glyph unicode="&#xae;" horiz-adv-x="1413" d="M78 733q0 164 58.5 296t152.5 211t203.5 121t220 42t219 -42t200 -121t147.5 -209t56 -290q0 -164 -58 -296t-152.5 -210.5t-204 -120.5t-220 -42t-219 42t-200 120.5t-147.5 208.5t-56 290zM205 733q0 -236 135 -385t360.5 -149t366.5 150.5t141 391.5q0 236 -136 385.5 t-359 149.5q-225 0 -366.5 -150.5t-141.5 -392.5zM487 416v665q0 43 45 47h201q106 0 173 -52t67 -169q0 -164 -131 -211l125 -243q2 -4 2 -15q0 -27 -24.5 -50t-51.5 -23q-29 0 -43 36l-135 273h-90v-258q0 -49 -66 -49q-29 0 -50.5 13t-21.5 36zM625 791h108 q104 0 105 102q0 113 -105 113h-108v-215z" />
<glyph unicode="&#xaf;" horiz-adv-x="585" d="M0 1335q0 37 22.5 62.5t59.5 25.5h420q33 0 58.5 -25.5t25.5 -62.5t-25.5 -61.5t-58.5 -24.5h-420q-37 0 -59.5 23.5t-22.5 62.5z" />
<glyph unicode="&#xb0;" horiz-adv-x="817" d="M45 1204.5q0 147.5 107.5 258t255.5 110.5q145 0 254.5 -108.5t109.5 -258t-109.5 -262.5t-255 -113t-254 113t-108.5 260.5zM190 1204q0 -88 63.5 -156.5t154 -68.5t155 67.5t64.5 155.5t-64.5 155.5t-155 67.5t-154 -66.5t-63.5 -154.5z" />
<glyph unicode="&#xb1;" horiz-adv-x="964" d="M72 174q0 47 22.5 79t59.5 32h655q33 0 58.5 -33t25.5 -78q0 -47 -25.5 -77.5t-58.5 -30.5h-655q-37 0 -59.5 29.5t-22.5 78.5zM72 754q0 49 22.5 80.5t59.5 31.5h219v201q0 31 32.5 57.5t77.5 26.5q47 0 78 -25.5t31 -58.5v-201h217q33 0 58.5 -32.5t25.5 -79.5 t-25.5 -78t-58.5 -31h-217v-203q0 -37 -30 -59.5t-79 -22.5q-47 0 -78.5 23t-31.5 59v203h-219q-37 0 -59.5 31t-22.5 78z" />
<glyph unicode="&#xb2;" horiz-adv-x="659" d="M49 733v109q0 59 60.5 118.5t132 102.5t132 96t60.5 101q0 31 -25.5 55t-74.5 24q-96 0 -96 -84q0 -27 -27 -45t-68 -18q-80 0 -80 90q0 98 80 156.5t189 58.5q113 0 195.5 -62.5t82.5 -168.5q0 -80 -59 -149.5t-129 -109.5t-129.5 -82t-59.5 -73v-21h324q23 0 38 -22.5 t15 -53t-16 -54t-37 -23.5h-430q-27 0 -52.5 16t-25.5 39z" />
<glyph unicode="&#xb3;" horiz-adv-x="673" d="M41 885q0 37 17.5 50t64.5 13q53 0 71.5 -12t18.5 -45q0 -66 117 -66q63 0 91 23.5t28 77.5v20q0 53 -32 70.5t-91 17.5q-53 0 -53.5 67.5t53.5 69.5q33 2 50 6.5t33.5 26t16.5 62.5q0 82 -96 82q-98 0 -99 -58q0 -63 -81 -63q-57 0 -74 14t-17 55q0 80 64.5 140.5 t206.5 60.5q264 0 264 -203q0 -143 -94 -184q123 -41 123 -164v-20q0 -131 -82 -192.5t-217 -61.5q-139 0 -211 65.5t-72 147.5z" />
<glyph unicode="&#xb4;" horiz-adv-x="413" d="M0 1264q0 47 35 63l270 131q20 4 27 4q33 0 57.5 -31.5t24.5 -68.5q0 -45 -37 -62l-266 -129q-20 -8 -29 -8q-33 0 -57.5 33t-24.5 68z" />
<glyph unicode="&#xb5;" horiz-adv-x="1060" d="M115 -369v1258q0 31 40 57.5t93 26.5q51 0 91 -26.5t40 -57.5v-502q0 -61 55 -117.5t127 -56.5q70 0 122 56.5t52 127.5v492q0 35 39 59.5t94 24.5q57 0 94 -24.5t37 -59.5v-492q0 -168 -129 -291.5t-311 -123.5q-117 0 -211 79v-430q0 -33 -30.5 -58.5t-73.5 -25.5 q-53 0 -91 25.5t-38 58.5z" />
<glyph unicode="&#xb6;" horiz-adv-x="1136" d="M47 1051v24q0 219 109.5 320.5t292.5 101.5h475q35 0 59.5 -22.5t24.5 -61.5v-1331q0 -41 -25 -61.5t-59.5 -20.5t-60 20.5t-25.5 61.5v1294h-168v-1292q0 -39 -26 -61.5t-60.5 -22.5t-59 22.5t-24.5 61.5v543h-51q-182 0 -292 102.5t-110 321.5z" />
<glyph unicode="&#xb7;" horiz-adv-x="421" d="M63 614.5q0 53.5 43.5 91t104.5 37.5t103 -37.5t42 -91t-42 -92.5t-103 -39t-104.5 39t-43.5 92.5z" />
<glyph unicode="&#xb8;" horiz-adv-x="389" d="M0 -383q0 18 13.5 47t33.5 29q6 0 43 -14.5t76 -14.5q96 0 96 67.5t-98 75.5l-113 11l58 200h116l-39 -122q100 -4 151.5 -48.5t51.5 -109.5q0 -68 -52 -124t-163 -56q-61 0 -117.5 15t-56.5 44z" />
<glyph unicode="&#xb9;" horiz-adv-x="395" d="M14 1341q0 43 31 62l156 90q20 8 32 8q31 0 55.5 -16.5t24.5 -40.5v-711q0 -27 -26.5 -41t-61.5 -14q-37 0 -63.5 14.5t-26.5 40.5v570l-35 -21q-14 -8 -30 -8q-25 0 -40.5 20t-15.5 47z" />
<glyph unicode="&#xba;" horiz-adv-x="704" d="M55 1165v113q0 113 87 195.5t208 82.5t209 -81.5t88 -196.5v-113q0 -111 -89 -195.5t-208 -84.5q-117 0 -206 84.5t-89 195.5zM231 1165q0 -49 35 -87t84 -38t85 38t36 87v113q0 49 -36 86t-85 37t-84 -37t-35 -86v-113z" />
<glyph unicode="&#xbb;" horiz-adv-x="1024" d="M72 285q0 14 6 26l137 256l-137 258q-6 10 -6 25q0 43 51 88t113 45q57 0 75 -35l150 -278l22 -39q14 -25 19.5 -38t5.5 -27.5t-5 -27t-19.5 -35t-22.5 -38.5l-150 -279q-18 -35 -73 -34q-63 0 -114.5 44t-51.5 89zM537 285q0 14 6 26l137 256l-137 258q-6 10 -6 25 q0 45 51 89t114 44q57 0 74 -35l152 -278l22 -39q14 -25 19.5 -38t5.5 -27.5t-5 -27t-19.5 -35t-22.5 -38.5l-152 -279q-16 -35 -74 -34q-63 0 -114 44t-51 89z" />
<glyph unicode="&#xbc;" horiz-adv-x="1361" d="M51 1341q0 43 31 62l156 90q20 8 32 8q31 0 55.5 -16.5t24.5 -40.5v-711q0 -27 -26.5 -41t-61.5 -14q-37 0 -63.5 14.5t-26.5 40.5v570l-35 -21q-14 -8 -31 -8q-25 0 -40 20t-15 47zM160 8q0 14 8 35l737 1493q20 43 74 43q37 0 69.5 -26.5t32.5 -65.5q0 -20 -8 -37 l-737 -1487q-18 -45 -80 -45q-41 0 -68.5 27.5t-27.5 62.5zM692 233q0 16 8 33l283 508q27 45 74 45q27 0 57.5 -19.5t30.5 -45.5q0 -12 -6 -23l-221 -397h118v78q0 27 27 40t61 13q90 0 90 -53v-78h54q53 0 53 -80q0 -31 -16.5 -56.5t-36.5 -25.5h-54v-119q0 -25 -26.5 -39 t-63.5 -14q-35 0 -61.5 14.5t-26.5 38.5v119h-286q-58 0 -58 61z" />
<glyph unicode="&#xbd;" horiz-adv-x="1339" d="M45 1341q0 43 31 62l155 90q20 8 33 8q31 0 55.5 -16.5t24.5 -40.5v-711q0 -27 -26.5 -41t-61.5 -14q-37 0 -63.5 14.5t-26.5 40.5v570l-35 -21q-14 -8 -31 -8q-25 0 -40 20t-15 47zM121 8q0 14 8 35l737 1493q23 43 74 43q39 0 70.5 -26.5t31.5 -65.5q0 -20 -8 -37 l-737 -1487q-18 -45 -80 -45q-41 0 -68.5 27.5t-27.5 62.5zM723 53v111q0 57 60.5 117.5t132 103.5t132 96.5t60.5 100.5q0 31 -25.5 54t-74.5 23q-96 0 -97 -84q0 -25 -26.5 -44t-67.5 -19q-80 0 -80 92q0 98 80 156.5t189 58.5q113 0 195.5 -62.5t82.5 -170.5 q0 -80 -58.5 -149.5t-130 -109.5t-130 -82t-58.5 -73v-18h324q23 0 38 -22.5t15 -53.5t-16.5 -54.5t-36.5 -23.5h-430q-27 0 -52.5 15t-25.5 38z" />
<glyph unicode="&#xbe;" horiz-adv-x="1636" d="M57 885q0 37 17.5 50t64.5 13q53 0 71.5 -12t18.5 -45q0 -66 117 -66q63 0 91 23.5t28 77.5v20q0 53 -32 70.5t-91 17.5q-53 0 -53 67.5t53 69.5q33 2 50.5 6.5t33.5 26t16 62.5q0 82 -96 82q-98 0 -98 -58q0 -63 -82 -63q-57 0 -73.5 14t-16.5 55q0 80 64.5 140.5 t205.5 60.5q264 0 264 -203q0 -143 -94 -184q123 -41 123 -164v-20q0 -131 -82 -192.5t-217 -61.5q-139 0 -211 65.5t-72 147.5zM420 8q0 14 8 35l737 1493q23 43 74 43q39 0 70.5 -26.5t31.5 -65.5q0 -20 -8 -37l-737 -1487q-18 -45 -80 -45q-41 0 -68.5 27.5t-27.5 62.5z M967 233q0 16 8 33l282 508q27 45 74 45q27 0 57.5 -19.5t30.5 -45.5q0 -12 -6 -23l-221 -397h119v78q0 27 26.5 40t61.5 13q90 0 90 -53v-78h53q53 0 53 -80q0 -31 -16 -56.5t-37 -25.5h-53v-119q0 -25 -26.5 -39t-63.5 -14q-35 0 -61.5 14.5t-26.5 38.5v119h-287 q-57 0 -57 61z" />
<glyph unicode="&#xbf;" horiz-adv-x="892" d="M51 334q0 74 25.5 140.5t75 121.5t74 78.5t67.5 58.5q66 53 84 110.5t18 162.5q0 74 103 73q53 0 74.5 -24.5t21.5 -89.5q0 -209 -125 -326q-12 -12 -59.5 -51t-71 -62.5t-47 -69.5t-23.5 -96q0 -84 57.5 -129t153.5 -45q68 0 113 22.5t62.5 48.5t41 48.5t52.5 22.5 q39 0 70.5 -27t31.5 -72q0 -86 -102.5 -163.5t-274.5 -77.5q-193 0 -307.5 98t-114.5 248zM356 1366q0 55 41 97t98.5 42t97.5 -42t40 -97q0 -59 -40 -100t-97.5 -41t-98.5 42t-41 99z" />
<glyph unicode="&#xc0;" horiz-adv-x="1177" d="M18 111q0 4 5 20l395 1288q12 43 60 66.5t109.5 23.5t111 -23.5t61.5 -66.5l395 -1288q4 -16 4 -20q0 -45 -55 -78t-113 -33q-76 0 -90 53l-78 273h-469l-78 -273q-14 -53 -90 -53q-59 0 -113.5 32t-54.5 79zM352 1860q0 37 24.5 68.5t57.5 31.5q6 0 27 -4l270 -131 q35 -18 35 -64q0 -35 -24.5 -67.5t-57.5 -32.5q-8 0 -29 8l-266 129q-37 17 -37 62zM410 535h356l-178 628z" />
<glyph unicode="&#xc1;" horiz-adv-x="1177" d="M18 111q0 4 5 20l395 1288q12 43 60 66.5t109.5 23.5t111 -23.5t61.5 -66.5l395 -1288q4 -16 4 -20q0 -45 -55 -78t-113 -33q-76 0 -90 53l-78 273h-469l-78 -273q-14 -53 -90 -53q-59 0 -113.5 32t-54.5 79zM410 535h356l-178 628zM440 1761q0 45 35 64l270 131 q20 4 27 4q33 0 57.5 -32t24.5 -68q0 -45 -37 -62l-266 -129q-20 -8 -29 -8q-33 0 -57.5 32.5t-24.5 67.5z" />
<glyph unicode="&#xc2;" horiz-adv-x="1177" d="M18 111q0 4 5 20l395 1288q12 43 60 66.5t109.5 23.5t111 -23.5t61.5 -66.5l395 -1288q4 -16 4 -20q0 -45 -55 -78t-113 -33q-76 0 -90 53l-78 273h-469l-78 -273q-14 -53 -90 -53q-59 0 -113.5 32t-54.5 79zM295 1759q0 53 45 76l213 115q16 10 35 10q14 0 35 -10 l213 -113q43 -27 43 -80q0 -31 -16.5 -55.5t-41.5 -24.5q-10 0 -20 6l-213 115l-213 -115q-12 -6 -23 -6q-25 0 -41 24.5t-16 57.5zM410 535h356l-178 628z" />
<glyph unicode="&#xc3;" horiz-adv-x="1177" d="M18 111q0 4 5 20l395 1288q12 43 60 66.5t109.5 23.5t111 -23.5t61.5 -66.5l395 -1288q4 -16 4 -20q0 -45 -55 -78t-113 -33q-76 0 -90 53l-78 273h-469l-78 -273q-14 -53 -90 -53q-59 0 -113.5 32t-54.5 79zM238 1798q0 57 36.5 91t70.5 41t69 7q61 0 149 -29.5 t142 -29.5q49 0 99 24.5t66 24.5q35 0 51.5 -30.5t16.5 -55.5q0 -45 -19.5 -74.5t-51 -43t-56.5 -17.5t-47 -4q-72 0 -158 29.5t-133 29.5q-49 0 -100 -24.5t-68 -24.5q-35 0 -51 30.5t-16 55.5zM410 535h356l-178 628z" />
<glyph unicode="&#xc4;" horiz-adv-x="1177" d="M18 111q0 4 5 20l395 1288q12 43 60 66.5t109.5 23.5t111 -23.5t61.5 -66.5l395 -1288q4 -16 4 -20q0 -45 -55 -78t-113 -33q-76 0 -90 53l-78 273h-469l-78 -273q-14 -53 -90 -53q-59 0 -113.5 32t-54.5 79zM334 1788q0 43 30.5 74.5t73.5 31.5t73 -31.5t30 -74.5 t-30 -76t-73 -33t-73.5 33t-30.5 76zM410 535h356l-178 628zM639 1788q0 43 30.5 74.5t75.5 31.5q41 0 72 -31.5t31 -74.5t-31 -76t-72 -33q-43 0 -74.5 33t-31.5 76z" />
<glyph unicode="&#xc5;" horiz-adv-x="1177" d="M18 111q0 4 5 20l395 1288q12 43 60 66.5t109.5 23.5t111 -23.5t61.5 -66.5l395 -1288q4 -16 4 -20q0 -45 -55 -78t-113 -33q-76 0 -90 53l-78 273h-469l-78 -273q-14 -53 -90 -53q-59 0 -113.5 32t-54.5 79zM387 1870q0 80 58.5 141.5t140.5 61.5t142 -61.5t60 -141.5 q0 -82 -61 -144.5t-141 -62.5t-139.5 62.5t-59.5 144.5zM410 535h356l-178 628zM492 1868q0 -37 28.5 -68t67.5 -31q37 0 63.5 30t26.5 69q0 37 -26.5 64.5t-63.5 27.5q-39 0 -67.5 -28.5t-28.5 -63.5z" />
<glyph unicode="&#xc6;" horiz-adv-x="1611" d="M117 94v934q0 242 128 355.5t339 113.5h911q41 0 62.5 -33.5t21.5 -81.5q0 -49 -22.5 -83.5t-61.5 -34.5h-467v-410h244q39 0 61.5 -31.5t22.5 -74.5q0 -39 -21.5 -71t-62.5 -32h-244v-412h467q39 0 61.5 -34.5t22.5 -83.5q0 -47 -21.5 -81t-62.5 -34h-616 q-47 0 -82 22.5t-35 61.5v561h-393v-551q0 -47 -27 -70.5t-106 -23.5q-119 0 -119 94zM369 854h393v410h-178q-215 0 -215 -236v-174z" />
<glyph unicode="&#xc7;" horiz-adv-x="1126" d="M109 457v571q0 242 131 355.5t342 113.5q215 0 351 -106.5t136 -282.5q0 -76 -30.5 -103.5t-102.5 -27.5q-131 0 -133 84q-2 27 -5 46t-16.5 51t-34 53.5t-61.5 37t-96 15.5q-215 0 -215 -236v-571q0 -236 219 -236q66 0 110 20.5t63 58.5t26.5 67.5t9.5 72.5 q6 84 131 84q72 0 103.5 -27.5t31.5 -103.5q0 -168 -113.5 -275.5t-300.5 -125.5l-30 -96q100 -4 151 -48.5t51 -109.5q0 -68 -52 -124t-163 -56q-61 0 -117.5 15t-56.5 44q0 18 13.5 47t33.5 29q6 0 43 -14.5t76 -14.5q96 0 96 67.5t-98 75.5l-113 11l50 172 q-195 10 -312.5 124t-117.5 343z" />
<glyph unicode="&#xc8;" horiz-adv-x="1083" d="M123 84v1329q0 39 35 61.5t82 22.5h729q41 0 62.5 -35t21.5 -80q0 -49 -22.5 -83.5t-61.5 -34.5h-580v-410h311q39 0 61.5 -31.5t22.5 -74.5q0 -39 -21.5 -71t-62.5 -32h-311v-412h580q39 0 61.5 -34.5t22.5 -83.5q0 -45 -21.5 -80t-62.5 -35h-729q-47 0 -82 22.5 t-35 61.5zM371 1860q0 37 24.5 68.5t57.5 31.5q6 0 26 -4l271 -131q35 -18 34 -64q0 -35 -24.5 -67.5t-57.5 -32.5q-8 0 -28 8l-266 129q-37 17 -37 62z" />
<glyph unicode="&#xc9;" horiz-adv-x="1083" d="M123 84v1329q0 39 35 61.5t82 22.5h729q41 0 62.5 -35t21.5 -80q0 -49 -22.5 -83.5t-61.5 -34.5h-580v-410h311q39 0 61.5 -31.5t22.5 -74.5q0 -39 -21.5 -71t-62.5 -32h-311v-412h580q39 0 61.5 -34.5t22.5 -83.5q0 -45 -21.5 -80t-62.5 -35h-729q-47 0 -82 22.5 t-35 61.5zM420 1761q0 45 35 64l270 131q20 4 27 4q33 0 57.5 -32t24.5 -68q0 -45 -37 -62l-267 -129q-20 -8 -28 -8q-33 0 -57.5 32.5t-24.5 67.5z" />
<glyph unicode="&#xca;" horiz-adv-x="1085" d="M123 84v1329q0 39 35 61.5t82 22.5h729q41 0 62.5 -35t21.5 -80q0 -49 -22.5 -83.5t-61.5 -34.5h-580v-410h311q39 0 61.5 -31.5t22.5 -74.5q0 -39 -21.5 -71t-62.5 -32h-311v-412h580q39 0 61.5 -34.5t22.5 -83.5q0 -45 -21.5 -80t-62.5 -35h-729q-47 0 -82 22.5 t-35 61.5zM311 1759q0 53 45 76l213 115q16 10 35 10q14 0 35 -10l213 -113q43 -27 43 -80q0 -31 -16.5 -55.5t-40.5 -24.5q-10 0 -21 6l-213 115l-213 -115q-12 -6 -22 -6q-25 0 -41.5 24.5t-16.5 57.5z" />
<glyph unicode="&#xcb;" horiz-adv-x="1085" d="M123 84v1329q0 39 35 61.5t82 22.5h729q41 0 62.5 -35t21.5 -80q0 -49 -22.5 -83.5t-61.5 -34.5h-580v-410h311q39 0 61.5 -31.5t22.5 -74.5q0 -39 -21.5 -71t-62.5 -32h-311v-412h580q39 0 61.5 -34.5t22.5 -83.5q0 -45 -21.5 -80t-62.5 -35h-729q-47 0 -82 22.5 t-35 61.5zM336 1788q0 43 30.5 74.5t73.5 31.5t73 -31.5t30 -74.5t-30 -76t-73 -33t-73.5 33t-30.5 76zM641 1788q0 43 30.5 74.5t76.5 31.5q41 0 71.5 -31.5t30.5 -74.5t-31 -76t-71 -33q-43 0 -75 33t-32 76z" />
<glyph unicode="&#xcc;" horiz-adv-x="512" d="M35 1860q0 37 24.5 68.5t57.5 31.5q6 0 26 -4l271 -131q35 -18 35 -64q0 -35 -25 -67.5t-57 -32.5q-8 0 -29 8l-266 129q-37 17 -37 62zM123 84v1331q0 41 39 61.5t94 20.5t94 -20.5t39 -61.5v-1331q0 -39 -40 -61.5t-93 -22.5q-55 0 -94 22.5t-39 61.5z" />
<glyph unicode="&#xcd;" horiz-adv-x="512" d="M63 1761q0 45 35 64l271 131q20 4 26 4q33 0 57.5 -32t24.5 -68q0 -45 -37 -62l-266 -129q-20 -8 -29 -8q-33 0 -57.5 32.5t-24.5 67.5zM123 84v1331q0 41 39 61.5t94 20.5t94 -20.5t39 -61.5v-1331q0 -39 -40 -61.5t-93 -22.5q-55 0 -94 22.5t-39 61.5z" />
<glyph unicode="&#xce;" horiz-adv-x="512" d="M-33 1759q0 53 45 76l213 115q16 10 35 10q14 0 35 -10l213 -113q43 -27 43 -80q0 -31 -16.5 -55.5t-40.5 -24.5q-10 0 -21 6l-213 115l-213 -115q-12 -6 -22 -6q-25 0 -41.5 24.5t-16.5 57.5zM123 84v1331q0 41 39 61.5t94 20.5t94 -20.5t39 -61.5v-1331 q0 -39 -40 -61.5t-93 -22.5q-55 0 -94 22.5t-39 61.5z" />
<glyph unicode="&#xcf;" horiz-adv-x="512" d="M2 1788q0 43 30.5 74.5t74 31.5t73 -31.5t29.5 -74.5t-29.5 -76t-73 -33t-74 33t-30.5 76zM123 84v1331q0 41 39 61.5t94 20.5t94 -20.5t39 -61.5v-1331q0 -39 -40 -61.5t-93 -22.5q-55 0 -94 22.5t-39 61.5zM307 1788q0 43 31 74.5t76 31.5q41 0 71.5 -31.5t30.5 -74.5 t-30.5 -76t-71.5 -33q-43 0 -75 33t-32 76z" />
<glyph unicode="&#xd0;" horiz-adv-x="1202" d="M-14 782q0 39 18.5 68t48.5 29h84v536q0 33 33 57.5t84 24.5h362q219 0 350.5 -112.5t131.5 -356.5v-559q0 -244 -131 -356.5t-351 -112.5h-362q-51 0 -84 24.5t-33 57.5v606h-84q-31 0 -49 27.5t-18 66.5zM403 233h213q215 0 215 236v559q0 236 -215 236h-213v-385h158 q33 0 51.5 -29t18.5 -68t-18.5 -66.5t-51.5 -27.5h-158v-455z" />
<glyph unicode="&#xd1;" horiz-adv-x="1239" d="M123 84v1329q0 41 39 62.5t94 21.5q74 0 113 -26.5t86 -114.5l395 -764v823q0 41 39 61.5t94 20.5t94 -20.5t39 -61.5v-1331q0 -39 -40 -61.5t-93 -22.5q-109 0 -154 84l-440 823v-823q0 -39 -40 -61.5t-93 -22.5q-55 0 -94 22.5t-39 61.5zM254 1798q0 57 37 91t70.5 41 t68.5 7q61 0 149.5 -29.5t141.5 -29.5q49 0 99 24.5t67 24.5q35 0 51 -30.5t16 -55.5q0 -45 -19.5 -74.5t-51 -43t-56 -17.5t-47.5 -4q-72 0 -157.5 29.5t-133.5 29.5q-49 0 -100 -24.5t-67 -24.5q-35 0 -51.5 30.5t-16.5 55.5z" />
<glyph unicode="&#xd2;" horiz-adv-x="1171" d="M106 457v571q0 244 130.5 356.5t349.5 112.5t350 -112.5t131 -356.5v-571q0 -244 -131 -356.5t-350 -112.5t-349.5 112.5t-130.5 356.5zM354 1860q0 37 24.5 68.5t57.5 31.5q6 0 27 -4l270 -131q35 -18 35 -64q0 -35 -24.5 -67.5t-57.5 -32.5q-8 0 -29 8l-266 129 q-37 17 -37 62zM373 457q0 -236 213 -236q215 0 215 236v571q0 236 -215 236q-213 0 -213 -236v-571z" />
<glyph unicode="&#xd3;" horiz-adv-x="1171" d="M106 457v571q0 244 130.5 356.5t349.5 112.5t350 -112.5t131 -356.5v-571q0 -244 -131 -356.5t-350 -112.5t-349.5 112.5t-130.5 356.5zM373 457q0 -236 213 -236q215 0 215 236v571q0 236 -215 236q-213 0 -213 -236v-571zM451 1761q0 45 34 64l271 131q20 4 26 4 q33 0 57.5 -32t24.5 -68q0 -45 -37 -62l-266 -129q-20 -8 -29 -8q-33 0 -57 32.5t-24 67.5z" />
<glyph unicode="&#xd4;" horiz-adv-x="1171" d="M106 457v571q0 244 130.5 356.5t349.5 112.5t350 -112.5t131 -356.5v-571q0 -244 -131 -356.5t-350 -112.5t-349.5 112.5t-130.5 356.5zM293 1759q0 53 45 76l213 115q16 10 35 10q14 0 35 -10l213 -113q43 -27 43 -80q0 -31 -16.5 -55.5t-41.5 -24.5q-12 0 -20 6 l-213 115l-213 -115q-12 -6 -23 -6q-25 0 -41 24.5t-16 57.5zM373 457q0 -236 213 -236q215 0 215 236v571q0 236 -215 236q-213 0 -213 -236v-571z" />
<glyph unicode="&#xd5;" horiz-adv-x="1171" d="M106 457v571q0 244 130.5 356.5t349.5 112.5t350 -112.5t131 -356.5v-571q0 -244 -131 -356.5t-350 -112.5t-349.5 112.5t-130.5 356.5zM236 1798q0 57 36.5 91t70.5 41t69 7q59 0 147 -29.5t143 -29.5q49 0 99.5 24.5t66.5 24.5q35 0 51.5 -30.5t16.5 -55.5 q0 -45 -19.5 -74.5t-51 -43t-56.5 -17.5t-47 -4q-72 0 -158 29.5t-133 29.5q-49 0 -100.5 -24.5t-67.5 -24.5q-35 0 -51 30.5t-16 55.5zM373 457q0 -236 213 -236q215 0 215 236v571q0 236 -215 236q-213 0 -213 -236v-571z" />
<glyph unicode="&#xd6;" horiz-adv-x="1171" d="M106 457v571q0 244 130.5 356.5t349.5 112.5t350 -112.5t131 -356.5v-571q0 -244 -131 -356.5t-350 -112.5t-349.5 112.5t-130.5 356.5zM332 1788q0 43 30.5 74.5t73.5 31.5t73 -31.5t30 -74.5t-30 -76t-73 -33t-73.5 33t-30.5 76zM373 457q0 -236 213 -236 q215 0 215 236v571q0 236 -215 236q-213 0 -213 -236v-571zM637 1788q0 43 30.5 74.5t75.5 31.5q41 0 72 -31.5t31 -74.5t-31 -76t-72 -33q-43 0 -74.5 33t-31.5 76z" />
<glyph unicode="&#xd7;" horiz-adv-x="833" d="M86 356q0 31 20 52l173 155l-170 152q-20 25 -21 53q0 47 38 85t85 38q29 0 53 -21l152 -153l153 153q20 20 54 21q45 0 83.5 -38t38.5 -83q0 -31 -20 -55l-170 -152l172 -155q20 -20 21 -54q0 -43 -39 -83t-84 -40q-33 0 -54 21l-155 156l-154 -156q-20 -20 -53 -21 q-41 0 -82 40t-41 85z" />
<glyph unicode="&#xd8;" horiz-adv-x="1173" d="M106 457v571q0 244 130.5 356.5t349.5 112.5q143 0 245 -47l43 86q23 43 74 43q39 0 71 -26.5t32 -65.5q0 -20 -9 -37l-59 -119q84 -117 84 -303v-571q0 -244 -131 -356.5t-350 -112.5q-147 0 -244 45l-35 -70q-23 -45 -80 -45q-43 0 -70.5 27.5t-27.5 62.5q0 18 10 35 l54 107q-87 114 -87 307zM373 516l348 709q-51 39 -135 39q-213 0 -213 -236v-512zM453 256q49 -35 133 -35q215 0 215 236v504z" />
<glyph unicode="&#xd9;" horiz-adv-x="1216" d="M117 457v958q0 41 39 61.5t94 20.5t94 -20.5t39 -61.5v-958q0 -236 225.5 -236t225.5 236v958q0 41 38.5 61.5t94 20.5t94.5 -20.5t39 -61.5v-958q0 -242 -134.5 -355.5t-357.5 -113.5t-357 112.5t-134 356.5zM367 1860q0 37 24.5 68.5t57.5 31.5q6 0 26 -4l270 -131 q35 -18 35 -64q0 -35 -24.5 -67.5t-57.5 -32.5q-8 0 -28 8l-267 129q-36 17 -36 62z" />
<glyph unicode="&#xda;" horiz-adv-x="1216" d="M117 457v958q0 41 39 61.5t94 20.5t94 -20.5t39 -61.5v-958q0 -236 225.5 -236t225.5 236v958q0 41 38.5 61.5t94 20.5t94.5 -20.5t39 -61.5v-958q0 -242 -134.5 -355.5t-357.5 -113.5t-357 112.5t-134 356.5zM446 1761q0 45 35 64l271 131q20 4 26 4q33 0 57.5 -32 t24.5 -68q0 -45 -37 -62l-266 -129q-20 -8 -29 -8q-33 0 -57.5 32.5t-24.5 67.5z" />
<glyph unicode="&#xdb;" horiz-adv-x="1216" d="M117 457v958q0 41 39 61.5t94 20.5t94 -20.5t39 -61.5v-958q0 -236 225.5 -236t225.5 236v958q0 41 38.5 61.5t94 20.5t94.5 -20.5t39 -61.5v-958q0 -242 -134.5 -355.5t-357.5 -113.5t-357 112.5t-134 356.5zM305 1759q0 53 45 76l213 115q16 10 35 10q14 0 35 -10 l213 -113q43 -27 43 -80q0 -31 -16.5 -55.5t-41.5 -24.5q-12 0 -20 6l-213 115l-213 -115q-12 -6 -23 -6q-25 0 -41 24.5t-16 57.5z" />
<glyph unicode="&#xdc;" horiz-adv-x="1216" d="M117 457v958q0 41 39 61.5t94 20.5t94 -20.5t39 -61.5v-958q0 -236 225.5 -236t225.5 236v958q0 41 38.5 61.5t94 20.5t94.5 -20.5t39 -61.5v-958q0 -242 -134.5 -355.5t-357.5 -113.5t-357 112.5t-134 356.5zM350 1788q0 43 31 74.5t74 31.5t72.5 -31.5t29.5 -74.5 t-29.5 -76t-72.5 -33t-74 33t-31 76zM655 1788q0 43 31 74.5t76 31.5q41 0 71.5 -31.5t30.5 -74.5t-30.5 -76t-71.5 -33q-43 0 -75 33t-32 76z" />
<glyph unicode="&#xdd;" horiz-adv-x="1175" d="M18 1386q0 45 58.5 78t118.5 33q55 0 81 -53l312 -592l313 592q29 53 80 53q59 0 117.5 -32.5t58.5 -78.5q0 -16 -6 -26l-422 -733q-8 -12 -8 -27v-516q0 -39 -39 -61.5t-94 -22.5q-53 0 -93 22.5t-40 61.5v516q0 18 -6 27l-424 733q-7 16 -7 26zM414 1761q0 45 35 64 l270 131q20 4 26 4q33 0 57.5 -32t24.5 -68q0 -45 -36 -62l-267 -129q-20 -8 -28 -8q-33 0 -57.5 32.5t-24.5 67.5z" />
<glyph unicode="&#xde;" horiz-adv-x="1064" d="M125 84v1358q0 37 36 59.5t89 22.5q61 0 100 -22.5t39 -59.5v-324q35 66 104.5 111t159.5 45q150 0 256.5 -116t106.5 -286v-196q0 -164 -106.5 -285t-245.5 -121q-90 0 -168 48.5t-107 113.5v-348q0 -31 -41 -57.5t-94 -26.5q-55 0 -92 25.5t-37 58.5zM389 653 q0 -45 55.5 -98t128.5 -53q70 0 124.5 51t54.5 123v196q0 70 -54.5 120t-128.5 50q-72 0 -126 -47t-54 -123v-219z" />
<glyph unicode="&#xdf;" horiz-adv-x="1228" d="M6 876.5q0 38.5 17.5 67.5t50.5 29h114v188q0 180 97.5 296t302.5 116q178 0 290.5 -96.5t112.5 -280.5q0 -106 -38 -197.5t-101 -124.5q121 -23 220 -139.5t99 -277.5v-27q0 -221 -130 -346t-320 -125q-43 0 -71.5 3t-62.5 14.5t-51.5 38t-17.5 67.5q0 43 16.5 84 t47.5 41q10 0 54 -12.5t83 -12.5q92 0 143 59.5t51 166.5v26q0 244 -247 301q-43 12 -62.5 32.5t-19.5 76.5q0 37 11 56.5t25.5 26.5t47.5 15q106 20 106 193q0 207 -166 206q-156 0 -155 -180v-1079q0 -37 -40 -59.5t-95.5 -22.5t-92.5 22.5t-37 59.5v698h-114 q-33 0 -50.5 29t-17.5 67.5z" />
<glyph unicode="&#xe0;" horiz-adv-x="964" d="M45 254q0 166 123 233.5t354 67.5h84v27q0 76 -44 132t-136 56t-157.5 -31.5t-75.5 -31.5q-41 0 -66 40.5t-25 90.5q0 59 105.5 103t222.5 44q223 0 331.5 -113.5t108.5 -285.5v-502q0 -35 -36.5 -59.5t-92.5 -24.5q-51 0 -84.5 24.5t-33.5 59.5v59q-141 -162 -312 -161 q-117 0 -191.5 69.5t-74.5 202.5zM258 1362q0 37 24.5 68.5t57.5 31.5q6 0 27 -4l270 -131q35 -16 35 -63q0 -35 -24.5 -68t-57.5 -33q-8 0 -29 8l-266 129q-37 17 -37 62zM309 289q0 -55 30 -83t79 -28q66 0 127 61.5t61 135.5v43h-31q-125 0 -195.5 -25.5t-70.5 -103.5z " />
<glyph unicode="&#xe1;" horiz-adv-x="964" d="M45 254q0 166 123 233.5t354 67.5h84v27q0 76 -44 132t-136 56t-157.5 -31.5t-75.5 -31.5q-41 0 -66 40.5t-25 90.5q0 59 105.5 103t222.5 44q223 0 331.5 -113.5t108.5 -285.5v-502q0 -35 -36.5 -59.5t-92.5 -24.5q-51 0 -84.5 24.5t-33.5 59.5v59q-141 -162 -312 -161 q-117 0 -191.5 69.5t-74.5 202.5zM291 1264q0 47 35 63l270 131q20 4 27 4q33 0 57.5 -31.5t24.5 -68.5q0 -45 -37 -62l-267 -129q-20 -8 -28 -8q-33 0 -57.5 33t-24.5 68zM309 289q0 -55 30 -83t79 -28q66 0 127 61.5t61 135.5v43h-31q-125 0 -195.5 -25.5t-70.5 -103.5z " />
<glyph unicode="&#xe2;" horiz-adv-x="964" d="M45 254q0 166 123 233.5t354 67.5h84v27q0 76 -44 132t-136 56t-157.5 -31.5t-75.5 -31.5q-41 0 -66 40.5t-25 90.5q0 59 105.5 103t222.5 44q223 0 331.5 -113.5t108.5 -285.5v-502q0 -35 -36.5 -59.5t-92.5 -24.5q-51 0 -84.5 24.5t-33.5 59.5v59q-141 -162 -312 -161 q-117 0 -191.5 69.5t-74.5 202.5zM160 1262q0 53 45 75l213 115q16 10 35 10q14 0 34 -10l213 -113q43 -27 43 -79q0 -31 -16 -55.5t-41 -24.5q-10 0 -20 6l-213 114l-213 -114q-12 -6 -23 -6q-25 0 -41 24.5t-16 57.5zM309 289q0 -55 30 -83t79 -28q66 0 127 61.5t61 135.5 v43h-31q-125 0 -195.5 -25.5t-70.5 -103.5z" />
<glyph unicode="&#xe3;" horiz-adv-x="964" d="M45 254q0 166 123 233.5t354 67.5h84v27q0 76 -44 132t-136 56t-157.5 -31.5t-75.5 -31.5q-41 0 -66 40.5t-25 90.5q0 59 105.5 103t222.5 44q223 0 331.5 -113.5t108.5 -285.5v-502q0 -35 -36.5 -59.5t-92.5 -24.5q-51 0 -84.5 24.5t-33.5 59.5v59q-141 -162 -312 -161 q-117 0 -191.5 69.5t-74.5 202.5zM115 1300q0 57 36.5 91t70.5 41.5t69 7.5q61 0 149 -30t142 -30q49 0 99 25t67 25q35 0 51 -31t16 -56q0 -45 -19.5 -74.5t-51 -43t-56 -17.5t-47.5 -4q-72 0 -158 30t-133 30q-49 0 -100 -25t-68 -25q-35 0 -51 30.5t-16 55.5zM309 289 q0 -55 30 -83t79 -28q66 0 127 61.5t61 135.5v43h-31q-125 0 -195.5 -25.5t-70.5 -103.5z" />
<glyph unicode="&#xe4;" horiz-adv-x="964" d="M45 254q0 166 123 233.5t354 67.5h84v27q0 76 -44 132t-136 56t-157.5 -31.5t-75.5 -31.5q-41 0 -66 40.5t-25 90.5q0 59 105.5 103t222.5 44q223 0 331.5 -113.5t108.5 -285.5v-502q0 -35 -36.5 -59.5t-92.5 -24.5q-51 0 -84.5 24.5t-33.5 59.5v59q-141 -162 -312 -161 q-117 0 -191.5 69.5t-74.5 202.5zM205 1290q0 43 30.5 75t73.5 32t73 -32t30 -75t-30 -75.5t-73 -32.5t-73.5 32.5t-30.5 75.5zM309 289q0 -55 30 -83t79 -28q66 0 127 61.5t61 135.5v43h-31q-125 0 -195.5 -25.5t-70.5 -103.5zM510 1290q0 43 30.5 75t75.5 32q41 0 72 -32 t31 -75t-31 -75.5t-72 -32.5q-43 0 -74.5 32.5t-31.5 75.5z" />
<glyph unicode="&#xe5;" horiz-adv-x="964" d="M45 254q0 166 123 233.5t354 67.5h84v27q0 76 -44 132t-136 56t-157.5 -31.5t-75.5 -31.5q-41 0 -66 40.5t-25 90.5q0 59 105.5 103t222.5 44q223 0 331.5 -113.5t108.5 -285.5v-502q0 -35 -36.5 -59.5t-92.5 -24.5q-51 0 -84.5 24.5t-33.5 59.5v59q-141 -162 -312 -161 q-117 0 -191.5 69.5t-74.5 202.5zM266 1372q0 80 58.5 141.5t140.5 61.5t142.5 -61.5t60.5 -141.5q0 -82 -61.5 -144.5t-141.5 -62.5t-139.5 62.5t-59.5 144.5zM309 289q0 -55 30 -83t79 -28q66 0 127 61.5t61 135.5v43h-31q-125 0 -195.5 -25.5t-70.5 -103.5zM371 1370 q0 -37 28.5 -67.5t67.5 -30.5q37 0 63.5 29.5t26.5 68.5q0 37 -26.5 64.5t-63.5 27.5q-39 0 -67.5 -28.5t-28.5 -63.5z" />
<glyph unicode="&#xe6;" horiz-adv-x="1531" d="M45 252q0 168 123 235.5t354 67.5h82v29q0 76 -44 132t-136 56t-156.5 -32.5t-74.5 -32.5q-41 0 -67 40.5t-26 92.5q0 59 106.5 102t223.5 43q215 0 320 -160q125 160 303 160q172 0 298 -107.5t126 -283.5q0 -59 -14.5 -96t-44 -53.5t-58.5 -21.5t-76 -5h-414v-31 q0 -88 67 -142.5t171 -54.5q76 0 153.5 39t100.5 39q43 0 70.5 -40t27.5 -76q0 -59 -107.5 -114.5t-256.5 -55.5q-246 0 -379 196q-72 -92 -167 -144t-192 -52q-135 0 -224 69.5t-89 200.5zM309 287q0 -53 30 -81t79 -28q66 0 126 61.5t60 135.5v43h-31q-80 0 -131 -7.5 t-92 -38t-41 -85.5zM870 573h299q35 0 47.5 11.5t12.5 42.5q0 72 -52.5 118t-127.5 46q-74 0 -126.5 -44.5t-52.5 -115.5v-58z" />
<glyph unicode="&#xe7;" horiz-adv-x="888" d="M70 401v164q0 188 110.5 304t331.5 116q139 0 233.5 -49t94.5 -111q0 -43 -31 -86t-74 -43q-12 0 -72.5 29t-130.5 29q-199 0 -198 -189v-164q0 -188 201 -188q70 0 129 30.5t75 30.5q49 0 81 -40.5t32 -83.5q0 -57 -83 -106.5t-206 -59.5l-26 -88q100 -4 151 -48.5 t51 -109.5q0 -68 -52 -124t-163 -56q-61 0 -117.5 15t-56.5 44q0 18 13.5 47t33.5 29q6 0 43 -14.5t76 -14.5q96 0 96 67.5t-98 75.5l-113 11l48 168q-188 16 -283.5 127.5t-95.5 287.5z" />
<glyph unicode="&#xe8;" horiz-adv-x="991" d="M66 401v174q0 168 131 289t317 121q174 0 298 -109.5t124 -275.5q0 -61 -15.5 -101t-47 -56.5t-58.5 -20.5t-70 -4h-415v-31q0 -88 65.5 -142.5t173.5 -54.5q78 0 154 39t98 39q43 0 72 -40t29 -76q0 -57 -103.5 -113.5t-257.5 -56.5q-219 0 -357 115.5t-138 303.5z M276 1362q0 37 25 68.5t57 31.5q6 0 27 -4l270 -131q35 -16 35 -63q0 -35 -24.5 -68t-57.5 -33q-8 0 -28 8l-267 129q-37 17 -37 62zM330 573h299q33 0 46 11.5t13 44.5q0 72 -52 117t-128 45q-72 0 -125 -44.5t-53 -115.5v-58z" />
<glyph unicode="&#xe9;" horiz-adv-x="991" d="M66 401v174q0 168 131 289t317 121q174 0 298 -109.5t124 -275.5q0 -61 -15.5 -101t-47 -56.5t-58.5 -20.5t-70 -4h-415v-31q0 -88 65.5 -142.5t173.5 -54.5q78 0 154 39t98 39q43 0 72 -40t29 -76q0 -57 -103.5 -113.5t-257.5 -56.5q-219 0 -357 115.5t-138 303.5z M309 1264q0 47 35 63l270 131q20 4 27 4q33 0 57.5 -31.5t24.5 -68.5q0 -45 -37 -62l-266 -129q-20 -8 -29 -8q-33 0 -57.5 33t-24.5 68zM330 573h299q33 0 46 11.5t13 44.5q0 72 -52 117t-128 45q-72 0 -125 -44.5t-53 -115.5v-58z" />
<glyph unicode="&#xea;" horiz-adv-x="991" d="M66 401v174q0 168 131 289t317 121q174 0 298 -109.5t124 -275.5q0 -61 -15.5 -101t-47 -56.5t-58.5 -20.5t-70 -4h-415v-31q0 -88 65.5 -142.5t173.5 -54.5q78 0 154 39t98 39q43 0 72 -40t29 -76q0 -57 -103.5 -113.5t-257.5 -56.5q-219 0 -357 115.5t-138 303.5z M217 1262q0 53 45 75l213 115q16 10 35 10q14 0 35 -10l213 -113q43 -27 43 -79q0 -31 -16.5 -55.5t-41.5 -24.5q-10 0 -20 6l-213 114l-213 -114q-12 -6 -23 -6q-25 0 -41 24.5t-16 57.5zM330 573h299q33 0 46 11.5t13 44.5q0 72 -52 117t-128 45q-72 0 -125 -44.5 t-53 -115.5v-58z" />
<glyph unicode="&#xeb;" horiz-adv-x="991" d="M66 401v174q0 168 131 289t317 121q174 0 298 -109.5t124 -275.5q0 -61 -15.5 -101t-47 -56.5t-58.5 -20.5t-70 -4h-415v-31q0 -88 65.5 -142.5t173.5 -54.5q78 0 154 39t98 39q43 0 72 -40t29 -76q0 -57 -103.5 -113.5t-257.5 -56.5q-219 0 -357 115.5t-138 303.5z M250 1290q0 43 30.5 75t73.5 32t73 -32t30 -75t-30 -75.5t-73 -32.5t-73.5 32.5t-30.5 75.5zM330 573h299q33 0 46 11.5t13 44.5q0 72 -52 117t-128 45q-72 0 -125 -44.5t-53 -115.5v-58zM555 1290q0 43 30.5 75t76.5 32q41 0 71.5 -32t30.5 -75t-31 -75.5t-71 -32.5 q-43 0 -75 32.5t-32 75.5z" />
<glyph unicode="&#xec;" horiz-adv-x="468" d="M-4 1362q0 37 24.5 68.5t57.5 31.5q6 0 26 -4l271 -131q35 -16 35 -63q0 -35 -25 -68t-57 -33q-8 0 -29 8l-266 129q-37 17 -37 62zM102 84v807q0 37 37 59.5t94.5 22.5t95.5 -22.5t38 -59.5v-807q0 -31 -40 -57.5t-94 -26.5q-55 0 -93 25.5t-38 58.5z" />
<glyph unicode="&#xed;" horiz-adv-x="468" d="M61 1264q0 47 35 63l271 131q20 4 26 4q33 0 57.5 -31.5t24.5 -68.5q0 -45 -37 -62l-266 -129q-20 -8 -29 -8q-33 0 -57.5 33t-24.5 68zM102 84v807q0 37 37 59.5t94.5 22.5t95.5 -22.5t38 -59.5v-807q0 -31 -40 -57.5t-94 -26.5q-55 0 -93 25.5t-38 58.5z" />
<glyph unicode="&#xee;" horiz-adv-x="468" d="M-57 1262q0 53 45 75l213 115q16 10 35 10q14 0 34 -10l213 -113q43 -27 43 -79q0 -31 -16 -55.5t-41 -24.5q-10 0 -20 6l-213 114l-213 -114q-12 -6 -23 -6q-25 0 -41 24.5t-16 57.5zM102 84v807q0 37 37 59.5t94.5 22.5t95.5 -22.5t38 -59.5v-807q0 -31 -40 -57.5 t-94 -26.5q-55 0 -93 25.5t-38 58.5z" />
<glyph unicode="&#xef;" horiz-adv-x="468" d="M-16 1290q0 43 30.5 75t73.5 32t72.5 -32t29.5 -75t-29.5 -75.5t-72.5 -32.5t-73.5 32.5t-30.5 75.5zM102 84v807q0 37 37 59.5t94.5 22.5t95.5 -22.5t38 -59.5v-807q0 -31 -40 -57.5t-94 -26.5q-55 0 -93 25.5t-38 58.5zM289 1290q0 43 30.5 75t75.5 32q41 0 72 -32 t31 -75t-31 -75.5t-72 -32.5q-43 0 -74.5 32.5t-31.5 75.5z" />
<glyph unicode="&#xf0;" horiz-adv-x="1048" d="M66 401v168q0 170 106.5 293t255.5 123q88 0 161 -46t105 -114q-6 168 -92 316l-108 -64q-10 -8 -27 -8q-33 0 -63.5 35t-30.5 72q0 33 30 51l95 55q-31 33 -76 41q-55 47 -55 92q0 43 32.5 85t98.5 42q121 0 227 -123l115 70q12 6 26 6q33 0 61.5 -32.5t28.5 -69.5 t-28 -54l-109 -65q139 -266 139 -561v-312q0 -166 -134 -292.5t-312 -126.5t-312 126.5t-134 292.5zM330 401q0 -74 54 -131t128 -57q76 0 129 57.5t53 130.5v170q0 78 -56 130.5t-128 52.5q-76 0 -128 -56.5t-52 -128.5v-168z" />
<glyph unicode="&#xf1;" horiz-adv-x="1071" d="M102 84v807q0 37 36 59.5t95 22.5q49 0 83 -22.5t34 -59.5v-62q33 66 105.5 111t169.5 45q141 0 246.5 -123t105.5 -293v-485q0 -39 -40 -61.5t-93 -22.5q-51 0 -91 22.5t-40 61.5v485q0 72 -53.5 128.5t-124.5 56.5q-68 0 -118 -51.5t-50 -133.5v-485q0 -31 -40 -57.5 t-94 -26.5q-55 0 -93 25.5t-38 58.5zM182 1300q0 57 37 91t71 41.5t68 7.5q59 0 147.5 -30t143.5 -30q49 0 99.5 25t66.5 25q35 0 51.5 -31t16.5 -56q0 -45 -19.5 -74.5t-51.5 -43t-56.5 -17.5t-46.5 -4q-72 0 -158 30t-133 30q-49 0 -100.5 -25t-67.5 -25q-35 0 -51.5 30.5 t-16.5 55.5z" />
<glyph unicode="&#xf2;" horiz-adv-x="1019" d="M66 401v168q0 168 131 292t313 124q178 0 311 -123t133 -293v-168q0 -166 -133 -292.5t-311 -126.5t-311 126.5t-133 292.5zM279 1362q0 37 24.5 68.5t56.5 31.5q6 0 27 -4l270 -131q35 -16 35 -63q0 -35 -24.5 -68t-57.5 -33q-8 0 -28 8l-267 129q-36 17 -36 62z M330 401q0 -74 53 -131t127 -57q72 0 126 57.5t54 130.5v168q0 70 -54 127.5t-126 57.5q-74 0 -127 -56.5t-53 -128.5v-168z" />
<glyph unicode="&#xf3;" horiz-adv-x="1019" d="M66 401v168q0 168 131 292t313 124q178 0 311 -123t133 -293v-168q0 -166 -133 -292.5t-311 -126.5t-311 126.5t-133 292.5zM309 1264q0 47 35 63l270 131q20 4 27 4q33 0 57.5 -31.5t24.5 -68.5q0 -45 -37 -62l-266 -129q-20 -8 -29 -8q-33 0 -57.5 33t-24.5 68z M330 401q0 -74 53 -131t127 -57q72 0 126 57.5t54 130.5v168q0 70 -54 127.5t-126 57.5q-74 0 -127 -56.5t-53 -128.5v-168z" />
<glyph unicode="&#xf4;" horiz-adv-x="1019" d="M66 401v168q0 168 131 292t313 124q178 0 311 -123t133 -293v-168q0 -166 -133 -292.5t-311 -126.5t-311 126.5t-133 292.5zM217 1262q0 53 45 75l213 115q16 10 35 10q14 0 35 -10l213 -113q43 -27 43 -79q0 -31 -16.5 -55.5t-41.5 -24.5q-10 0 -20 6l-213 114 l-213 -114q-12 -6 -23 -6q-25 0 -41 24.5t-16 57.5zM330 401q0 -74 53 -131t127 -57q72 0 126 57.5t54 130.5v168q0 70 -54 127.5t-126 57.5q-74 0 -127 -56.5t-53 -128.5v-168z" />
<glyph unicode="&#xf5;" horiz-adv-x="1019" d="M66 401v168q0 168 131 292t313 124q178 0 311 -123t133 -293v-168q0 -166 -133 -292.5t-311 -126.5t-311 126.5t-133 292.5zM162 1300q0 57 37 91t70.5 41.5t68.5 7.5q59 0 147 -30t144 -30q49 0 99 25t67 25q35 0 51 -31t16 -56q0 -45 -19.5 -74.5t-51 -43t-56 -17.5 t-47.5 -4q-72 0 -158 30t-133 30q-49 0 -100 -25t-68 -25q-35 0 -51 30.5t-16 55.5zM330 401q0 -74 53 -131t127 -57q72 0 126 57.5t54 130.5v168q0 70 -54 127.5t-126 57.5q-74 0 -127 -56.5t-53 -128.5v-168z" />
<glyph unicode="&#xf6;" horiz-adv-x="1019" d="M66 401v168q0 168 131 292t313 124q178 0 311 -123t133 -293v-168q0 -166 -133 -292.5t-311 -126.5t-311 126.5t-133 292.5zM254 1290q0 43 30.5 75t73.5 32t73 -32t30 -75t-30 -75.5t-73 -32.5t-73.5 32.5t-30.5 75.5zM330 401q0 -74 53 -131t127 -57q72 0 126 57.5 t54 130.5v168q0 70 -54 127.5t-126 57.5q-74 0 -127 -56.5t-53 -128.5v-168zM559 1290q0 43 31 75t76 32q41 0 71.5 -32t30.5 -75t-30.5 -75.5t-71.5 -32.5q-43 0 -75 32.5t-32 75.5z" />
<glyph unicode="&#xf7;" horiz-adv-x="913" d="M45 487q0 45 24.5 75t61.5 30h649q35 0 61.5 -31t26.5 -74q0 -45 -26.5 -72.5t-61.5 -27.5h-649q-37 0 -61.5 27.5t-24.5 72.5zM324 141q0 51 37.5 86t89.5 35q47 0 85.5 -34.5t38.5 -86.5q0 -49 -38.5 -85t-85.5 -36q-51 0 -89 36t-38 85zM324 837.5q0 49.5 37.5 85 t89.5 35.5q47 0 85.5 -35.5t38.5 -85t-38.5 -85t-85.5 -35.5q-51 0 -89 35.5t-38 85z" />
<glyph unicode="&#xf8;" horiz-adv-x="1019" d="M66 401v168q0 168 131 292t313 124q127 0 231 -63l70 98q16 25 41 24.5t43 -18.5t18 -41q0 -18 -14 -39l-68 -94q123 -123 123 -283v-168q0 -166 -133 -292.5t-311 -126.5q-133 0 -246 73l-71 -102q-12 -18 -35 -19q-20 0 -39 16.5t-19 39.5q0 12 13 33l69 100 q-116 122 -116 278zM330 401q0 -33 8 -57l266 379q-47 31 -94 31q-74 0 -127 -56.5t-53 -128.5v-168zM403 250q51 -37 107 -37q72 0 126 57.5t54 130.5v168q0 29 -14 64z" />
<glyph unicode="&#xf9;" d="M92 397v492q0 31 40 57.5t93 26.5q51 0 91 -26.5t40 -57.5v-492q0 -72 53.5 -128t127 -56t126 56.5t52.5 127.5v494q0 33 40 57.5t93 24.5q57 0 94 -24.5t37 -57.5v-494q0 -166 -131 -290.5t-311.5 -124.5t-312.5 124.5t-132 290.5zM303 1362q0 37 24.5 68.5t57.5 31.5 q6 0 27 -4l270 -131q35 -16 35 -63q0 -35 -24.5 -68t-57.5 -33q-8 0 -29 8l-266 129q-37 17 -37 62z" />
<glyph unicode="&#xfa;" d="M92 397v492q0 31 40 57.5t93 26.5q51 0 91 -26.5t40 -57.5v-492q0 -72 53.5 -128t127 -56t126 56.5t52.5 127.5v494q0 33 40 57.5t93 24.5q57 0 94 -24.5t37 -57.5v-494q0 -166 -131 -290.5t-311.5 -124.5t-312.5 124.5t-132 290.5zM352 1264q0 47 35 63l270 131 q20 4 27 4q33 0 57.5 -31.5t24.5 -68.5q0 -45 -37 -62l-266 -129q-20 -8 -29 -8q-33 0 -57.5 33t-24.5 68z" />
<glyph unicode="&#xfb;" d="M92 397v492q0 31 40 57.5t93 26.5q51 0 91 -26.5t40 -57.5v-492q0 -72 53.5 -128t127 -56t126 56.5t52.5 127.5v494q0 33 40 57.5t93 24.5q57 0 94 -24.5t37 -57.5v-494q0 -166 -131 -290.5t-311.5 -124.5t-312.5 124.5t-132 290.5zM246 1262q0 53 45 75l213 115 q16 10 35 10q14 0 34 -10l213 -113q43 -27 43 -79q0 -31 -16 -55.5t-41 -24.5q-10 0 -20 6l-213 114l-213 -114q-12 -6 -23 -6q-25 0 -41 24.5t-16 57.5z" />
<glyph unicode="&#xfc;" d="M92 397v492q0 31 40 57.5t93 26.5q51 0 91 -26.5t40 -57.5v-492q0 -72 53.5 -128t127 -56t126 56.5t52.5 127.5v494q0 33 40 57.5t93 24.5q57 0 94 -24.5t37 -57.5v-494q0 -166 -131 -290.5t-311.5 -124.5t-312.5 124.5t-132 290.5zM281 1290q0 43 30.5 75t73.5 32 t72.5 -32t29.5 -75t-29.5 -75.5t-72.5 -32.5t-73.5 32.5t-30.5 75.5zM586 1290q0 43 30.5 75t75.5 32q41 0 72 -32t31 -75t-31 -75.5t-72 -32.5q-43 0 -74.5 32.5t-31.5 75.5z" />
<glyph unicode="&#xfd;" horiz-adv-x="974" d="M12 -340q0 111 68 111q96 0 189 69.5t104 231.5l-353 753q-8 20 -8 35q0 49 60.5 88t115.5 39q61 0 76 -45l246 -612l199 612q14 45 69 45q53 0 116.5 -40t63.5 -91q0 -16 -6 -31l-299 -764l-35 -90q-25 -70 -36 -96.5t-38.5 -82.5t-49 -81.5t-60.5 -63.5t-79 -55.5 t-97 -31t-125 -13.5q-59 0 -90 22.5t-31 90.5zM360 1264q0 47 35 63l271 131q20 4 26 4q33 0 57.5 -31.5t24.5 -68.5q0 -45 -37 -62l-266 -129q-20 -8 -29 -8q-33 0 -57.5 33t-24.5 68z" />
<glyph unicode="&#xfe;" horiz-adv-x="1064" d="M106 -369v1827q0 37 36 59.5t89 22.5q61 0 100.5 -22.5t39.5 -59.5v-629q35 66 104.5 111t155.5 45q154 0 260 -122t106 -294v-168q0 -166 -108.5 -292.5t-249.5 -126.5q-88 0 -163 48t-105 113v-512q0 -33 -40 -58.5t-95.5 -25.5t-92.5 25.5t-37 58.5zM371 365 q0 -41 55 -96.5t125 -55.5q72 0 127 58.5t55 129.5v168q0 72 -55 128.5t-131 56.5q-70 0 -123 -51.5t-53 -133.5v-204z" />
<glyph unicode="&#xff;" horiz-adv-x="974" d="M12 -340q0 111 68 111q96 0 189 69.5t104 231.5l-353 753q-8 20 -8 35q0 49 60.5 88t115.5 39q61 0 76 -45l246 -612l199 612q14 45 69 45q53 0 116.5 -40t63.5 -91q0 -16 -6 -31l-299 -764l-35 -90q-25 -70 -36 -96.5t-38.5 -82.5t-49 -81.5t-60.5 -63.5t-79 -55.5 t-97 -31t-125 -13.5q-59 0 -90 22.5t-31 90.5zM252 1290q0 43 30.5 75t73.5 32t73 -32t30 -75t-30 -75.5t-73 -32.5t-73.5 32.5t-30.5 75.5zM557 1290q0 43 30.5 75t76.5 32q41 0 71.5 -32t30.5 -75t-30.5 -75.5t-71.5 -32.5q-43 0 -75 32.5t-32 75.5z" />
<glyph unicode="&#x100;" horiz-adv-x="1177" d="M18 111q0 4 5 20l395 1288q12 43 60 66.5t109.5 23.5t111 -23.5t61.5 -66.5l395 -1288q4 -16 4 -20q0 -45 -55 -78t-113 -33q-76 0 -90 53l-78 273h-469l-78 -273q-14 -53 -90 -53q-59 0 -113.5 32t-54.5 79zM295 1833q0 37 22.5 62.5t59.5 25.5h420q33 0 58.5 -25.5 t25.5 -62.5t-26 -61.5t-58 -24.5h-420q-37 0 -59.5 23.5t-22.5 62.5zM410 535h356l-178 628z" />
<glyph unicode="&#x101;" horiz-adv-x="964" d="M45 254q0 166 123 233.5t354 67.5h84v27q0 76 -44 132t-136 56t-157.5 -31.5t-75.5 -31.5q-41 0 -66 40.5t-25 90.5q0 59 105.5 103t222.5 44q223 0 331.5 -113.5t108.5 -285.5v-502q0 -35 -36.5 -59.5t-92.5 -24.5q-51 0 -84.5 24.5t-33.5 59.5v59q-141 -162 -312 -161 q-117 0 -191.5 69.5t-74.5 202.5zM180 1335q0 37 22.5 62.5t59.5 25.5h420q33 0 58.5 -25.5t25.5 -62.5t-25.5 -61.5t-58.5 -24.5h-420q-37 0 -59.5 23.5t-22.5 62.5zM309 289q0 -55 30 -83t79 -28q66 0 127 61.5t61 135.5v43h-31q-125 0 -195.5 -25.5t-70.5 -103.5z" />
<glyph unicode="&#x102;" horiz-adv-x="1177" d="M18 111q0 4 5 20l395 1288q12 43 60 66.5t109.5 23.5t111 -23.5t61.5 -66.5l395 -1288q4 -16 4 -20q0 -45 -55 -78t-113 -33q-76 0 -90 53l-78 273h-469l-78 -273q-14 -53 -90 -53q-59 0 -113.5 32t-54.5 79zM315 1974h144q0 -66 39 -109.5t90 -43.5q49 0 89 44t40 109 h143q0 -109 -83 -190.5t-189.5 -81.5t-189.5 81.5t-83 190.5zM410 535h356l-178 628z" />
<glyph unicode="&#x103;" horiz-adv-x="964" d="M45 254q0 166 123 233.5t354 67.5h84v27q0 76 -44 132t-136 56t-157.5 -31.5t-75.5 -31.5q-41 0 -66 40.5t-25 90.5q0 59 105.5 103t222.5 44q223 0 331.5 -113.5t108.5 -285.5v-502q0 -35 -36.5 -59.5t-92.5 -24.5q-51 0 -84.5 24.5t-33.5 59.5v59q-141 -162 -312 -161 q-117 0 -191.5 69.5t-74.5 202.5zM195 1477h143q0 -66 39 -110t90 -44q49 0 89 44t40 110h143q0 -109 -83 -191t-189.5 -82t-189 82t-82.5 191zM309 289q0 -55 30 -83t79 -28q66 0 127 61.5t61 135.5v43h-31q-125 0 -195.5 -25.5t-70.5 -103.5z" />
<glyph unicode="&#x104;" horiz-adv-x="1177" d="M18 111q0 4 5 20l395 1288q12 43 60 66.5t109.5 23.5t111 -23.5t61.5 -66.5l395 -1288q4 -16 4 -20q0 -61 -94 -97q-70 -43 -115 -110.5t-45 -130.5q0 -96 123 -97q47 0 47 -59q0 -53 -59 -53q-115 0 -177.5 50t-62.5 134q0 158 146 270q-14 10 -21 35l-78 273h-469 l-78 -273q-14 -53 -90 -53q-59 0 -113.5 32t-54.5 79zM410 535h356l-178 628z" />
<glyph unicode="&#x105;" horiz-adv-x="964" d="M45 254q0 166 123 233.5t354 67.5h84v27q0 76 -44 132t-136 56t-157.5 -31.5t-75.5 -31.5q-41 0 -66 40.5t-25 90.5q0 59 105.5 103t222.5 44q223 0 331.5 -113.5t108.5 -285.5v-502q0 -45 -55 -70q-70 -43 -115 -110.5t-45 -130.5q0 -96 123 -97q47 0 47 -59 q0 -53 -59 -53q-115 0 -177.5 50t-62.5 134q0 154 142 268q-45 27 -45 68v59q-141 -162 -312 -161q-117 0 -191.5 69.5t-74.5 202.5zM309 289q0 -55 30 -83t79 -28q66 0 127 61.5t61 135.5v43h-31q-125 0 -195.5 -25.5t-70.5 -103.5z" />
<glyph unicode="&#x106;" horiz-adv-x="1126" d="M109 457v571q0 242 131 355.5t342 113.5q215 0 351 -106.5t136 -282.5q0 -76 -30.5 -103.5t-102.5 -27.5q-131 0 -133 84q-2 27 -5 46t-16.5 51t-34 53.5t-61.5 37t-96 15.5q-215 0 -215 -236v-571q0 -236 219 -236q66 0 110 20.5t63 58.5t26.5 67.5t9.5 72.5 q6 84 131 84q72 0 103.5 -27.5t31.5 -103.5q0 -184 -136 -294.5t-353 -110.5q-211 0 -341 113.5t-130 355.5zM420 1761q0 45 35 64l270 131q20 4 27 4q33 0 57.5 -32t24.5 -68q0 -45 -37 -62l-267 -129q-20 -8 -28 -8q-33 0 -57.5 32.5t-24.5 67.5z" />
<glyph unicode="&#x107;" horiz-adv-x="888" d="M70 401v164q0 188 110.5 304t331.5 116q139 0 233.5 -49t94.5 -111q0 -43 -31 -86t-74 -43q-12 0 -72.5 29t-130.5 29q-199 0 -198 -189v-164q0 -188 201 -188q70 0 129 30.5t75 30.5q49 0 81 -40.5t32 -83.5q0 -63 -99.5 -115.5t-238.5 -52.5q-223 0 -333.5 114.5 t-110.5 304.5zM291 1264q0 47 35 63l270 131q20 4 27 4q33 0 57.5 -31.5t24.5 -68.5q0 -45 -37 -62l-267 -129q-20 -8 -28 -8q-33 0 -57.5 33t-24.5 68z" />
<glyph unicode="&#x108;" horiz-adv-x="1126" d="M109 457v571q0 242 131 355.5t342 113.5q215 0 351 -106.5t136 -282.5q0 -76 -30.5 -103.5t-102.5 -27.5q-131 0 -133 84q-2 27 -5 46t-16.5 51t-34 53.5t-61.5 37t-96 15.5q-215 0 -215 -236v-571q0 -236 219 -236q66 0 110 20.5t63 58.5t26.5 67.5t9.5 72.5 q6 84 131 84q72 0 103.5 -27.5t31.5 -103.5q0 -184 -136 -294.5t-353 -110.5q-211 0 -341 113.5t-130 355.5zM295 1759q0 53 45 76l213 115q16 10 35 10q14 0 35 -10l213 -113q43 -27 43 -80q0 -31 -16.5 -55.5t-41.5 -24.5q-10 0 -20 6l-213 115l-213 -115q-12 -6 -23 -6 q-25 0 -41 24.5t-16 57.5z" />
<glyph unicode="&#x109;" horiz-adv-x="888" d="M70 401v164q0 188 110.5 304t331.5 116q139 0 233.5 -49t94.5 -111q0 -43 -31 -86t-74 -43q-12 0 -72.5 29t-130.5 29q-199 0 -198 -189v-164q0 -188 201 -188q70 0 129 30.5t75 30.5q49 0 81 -40.5t32 -83.5q0 -63 -99.5 -115.5t-238.5 -52.5q-223 0 -333.5 114.5 t-110.5 304.5zM190 1262q0 53 46 75l213 115q16 10 34 10q14 0 35 -10l213 -113q43 -27 43 -79q0 -31 -16.5 -55.5t-40.5 -24.5q-12 0 -21 6l-213 114l-213 -114q-12 -6 -22 -6q-25 0 -41.5 24.5t-16.5 57.5z" />
<glyph unicode="&#x10a;" horiz-adv-x="1126" d="M109 457v571q0 242 131 355.5t342 113.5q215 0 351 -106.5t136 -282.5q0 -76 -30.5 -103.5t-102.5 -27.5q-131 0 -133 84q-2 27 -5 46t-16.5 51t-34 53.5t-61.5 37t-96 15.5q-215 0 -215 -236v-571q0 -236 219 -236q66 0 110 20.5t63 58.5t26.5 67.5t9.5 72.5 q6 84 131 84q72 0 103.5 -27.5t31.5 -103.5q0 -184 -136 -294.5t-353 -110.5q-211 0 -341 113.5t-130 355.5zM487 1788q0 43 31 74.5t74 31.5t72.5 -31.5t29.5 -74.5t-29.5 -76t-72.5 -33t-74 33t-31 76z" />
<glyph unicode="&#x10b;" horiz-adv-x="888" d="M70 401v164q0 188 110.5 304t331.5 116q139 0 233.5 -49t94.5 -111q0 -43 -31 -86t-74 -43q-12 0 -72.5 29t-130.5 29q-199 0 -198 -189v-164q0 -188 201 -188q70 0 129 30.5t75 30.5q49 0 81 -40.5t32 -83.5q0 -63 -99.5 -115.5t-238.5 -52.5q-223 0 -333.5 114.5 t-110.5 304.5zM373 1290q0 43 30.5 75t73.5 32t73 -32t30 -75t-30 -75.5t-73 -32.5t-73.5 32.5t-30.5 75.5z" />
<glyph unicode="&#x10c;" horiz-adv-x="1126" d="M109 457v571q0 242 131 355.5t342 113.5q215 0 351 -106.5t136 -282.5q0 -76 -30.5 -103.5t-102.5 -27.5q-131 0 -133 84q-2 27 -5 46t-16.5 51t-34 53.5t-61.5 37t-96 15.5q-215 0 -215 -236v-571q0 -236 219 -236q66 0 110 20.5t63 58.5t26.5 67.5t9.5 72.5 q6 84 131 84q72 0 103.5 -27.5t31.5 -103.5q0 -184 -136 -294.5t-353 -110.5q-211 0 -341 113.5t-130 355.5zM293 1917q0 31 16.5 55.5t40.5 24.5q14 0 25 -8l211 -136l209 136q14 8 24 8q25 0 41.5 -24.5t16.5 -55.5q0 -51 -43 -78l-211 -135q-20 -12 -37 -12q-18 0 -37 12 l-211 135q-45 27 -45 78z" />
<glyph unicode="&#x10d;" horiz-adv-x="888" d="M70 401v164q0 188 110.5 304t331.5 116q139 0 233.5 -49t94.5 -111q0 -43 -31 -86t-74 -43q-12 0 -72.5 29t-130.5 29q-199 0 -198 -189v-164q0 -188 201 -188q70 0 129 30.5t75 30.5q49 0 81 -40.5t32 -83.5q0 -63 -99.5 -115.5t-238.5 -52.5q-223 0 -333.5 114.5 t-110.5 304.5zM180 1419q0 31 16.5 55.5t41.5 24.5q14 0 24 -8l211 -135l209 135q14 8 25 8q25 0 41 -24.5t16 -55.5q0 -51 -43 -78l-211 -135q-23 -12 -37 -12q-18 0 -37 12l-211 135q-45 27 -45 78z" />
<glyph unicode="&#x10e;" horiz-adv-x="1187" d="M123 82v1333q0 33 32.5 57.5t84.5 24.5h362q219 0 350 -112.5t131 -356.5v-559q0 -244 -131 -356.5t-350 -112.5h-362q-51 0 -84 24.5t-33 57.5zM270 1917q0 31 16.5 55.5t41.5 24.5q14 0 24 -8l211 -136l209 136q14 8 25 8q25 0 41 -24.5t16 -55.5q0 -51 -43 -78 l-211 -135q-23 -12 -37 -12q-18 0 -37 12l-211 135q-45 27 -45 78zM389 233h213q215 0 215 236v559q0 236 -215 236h-213v-1031z" />
<glyph unicode="&#x10f;" horiz-adv-x="1064" d="M68 401v168q0 170 107.5 293t256.5 123q90 0 158.5 -45t105.5 -111v629q0 37 38 59.5t95.5 22.5t94.5 -22.5t37 -59.5v-1374q0 -33 -38 -58.5t-94 -25.5q-47 0 -82.5 26.5t-35.5 57.5v59q-33 -66 -112 -113.5t-173 -47.5q-141 0 -249.5 126.5t-108.5 292.5zM332 401 q0 -72 53 -130t125 -58t129 56.5t57 95.5v204q0 82 -56 133.5t-128 51.5q-74 0 -127 -56.5t-53 -128.5v-168zM1063 1378q0 57 40 98.5t97 41.5t98 -41t41 -97q0 -37 -112 -301q-16 -33 -56 -32q-31 0 -59.5 19t-28.5 50q0 14 9 29l47 108q-76 41 -76 125z" />
<glyph unicode="&#x110;" horiz-adv-x="1202" d="M-14 782q0 39 18.5 68t48.5 29h84v536q0 33 33 57.5t84 24.5h362q219 0 350.5 -112.5t131.5 -356.5v-559q0 -244 -131 -356.5t-351 -112.5h-362q-51 0 -84 24.5t-33 57.5v606h-84q-31 0 -49 27.5t-18 66.5zM403 233h213q215 0 215 236v559q0 236 -215 236h-213v-385h158 q33 0 51.5 -29t18.5 -68t-18.5 -66.5t-51.5 -27.5h-158v-455z" />
<glyph unicode="&#x111;" horiz-adv-x="1064" d="M68 401v168q0 170 107.5 293t256.5 123q90 0 158.5 -45t105.5 -111v304h-159q-33 0 -51.5 28.5t-18.5 67.5t18.5 67.5t51.5 28.5h159v133q0 37 38 59.5t95.5 22.5t94.5 -22.5t37 -59.5v-133h59q33 0 51.5 -28.5t18.5 -67.5q0 -41 -18.5 -68.5t-51.5 -27.5h-59v-1049 q0 -33 -38 -58.5t-94 -25.5q-47 0 -82.5 26.5t-35.5 57.5v59q-33 -66 -112 -113.5t-173 -47.5q-141 0 -249.5 126.5t-108.5 292.5zM332 401q0 -72 53 -130t125 -58t129 56.5t57 95.5v204q0 82 -56 133.5t-128 51.5q-74 0 -127 -56.5t-53 -128.5v-168z" />
<glyph unicode="&#x112;" horiz-adv-x="1085" d="M123 84v1329q0 39 35 61.5t82 22.5h729q41 0 62.5 -35t21.5 -80q0 -49 -22.5 -83.5t-61.5 -34.5h-580v-410h311q39 0 61.5 -31.5t22.5 -74.5q0 -39 -21.5 -71t-62.5 -32h-311v-412h580q39 0 61.5 -34.5t22.5 -83.5q0 -45 -21.5 -80t-62.5 -35h-729q-47 0 -82 22.5 t-35 61.5zM301 1833q0 37 22.5 62.5t59.5 25.5h420q33 0 58.5 -25.5t25.5 -62.5t-25.5 -61.5t-58.5 -24.5h-420q-37 0 -59.5 23.5t-22.5 62.5z" />
<glyph unicode="&#x113;" horiz-adv-x="991" d="M66 401v174q0 168 131 289t317 121q174 0 298 -109.5t124 -275.5q0 -61 -15.5 -101t-47 -56.5t-58.5 -20.5t-70 -4h-415v-31q0 -88 65.5 -142.5t173.5 -54.5q78 0 154 39t98 39q43 0 72 -40t29 -76q0 -57 -103.5 -113.5t-257.5 -56.5q-219 0 -357 115.5t-138 303.5z M219 1335q0 37 22.5 62.5t59.5 25.5h420q33 0 58.5 -25.5t25.5 -62.5t-25.5 -61.5t-58.5 -24.5h-420q-37 0 -59.5 23.5t-22.5 62.5zM330 573h299q33 0 46 11.5t13 44.5q0 72 -52 117t-128 45q-72 0 -125 -44.5t-53 -115.5v-58z" />
<glyph unicode="&#x114;" horiz-adv-x="1085" d="M123 84v1329q0 39 35 61.5t82 22.5h729q41 0 62.5 -35t21.5 -80q0 -49 -22.5 -83.5t-61.5 -34.5h-580v-410h311q39 0 61.5 -31.5t22.5 -74.5q0 -39 -21.5 -71t-62.5 -32h-311v-412h580q39 0 61.5 -34.5t22.5 -83.5q0 -45 -21.5 -80t-62.5 -35h-729q-47 0 -82 22.5 t-35 61.5zM313 1974h144q0 -66 39 -109.5t90 -43.5q49 0 89 44t40 109h143q0 -109 -83 -190.5t-189.5 -81.5t-189.5 81.5t-83 190.5z" />
<glyph unicode="&#x115;" horiz-adv-x="991" d="M66 401v174q0 168 131 289t317 121q174 0 298 -109.5t124 -275.5q0 -61 -15.5 -101t-47 -56.5t-58.5 -20.5t-70 -4h-415v-31q0 -88 65.5 -142.5t173.5 -54.5q78 0 154 39t98 39q43 0 72 -40t29 -76q0 -57 -103.5 -113.5t-257.5 -56.5q-219 0 -357 115.5t-138 303.5z M238 1477h143q0 -66 39 -110t90 -44q49 0 89 44t40 110h143q0 -109 -83 -191t-189.5 -82t-189 82t-82.5 191zM330 573h299q33 0 46 11.5t13 44.5q0 72 -52 117t-128 45q-72 0 -125 -44.5t-53 -115.5v-58z" />
<glyph unicode="&#x116;" horiz-adv-x="1085" d="M123 84v1329q0 39 35 61.5t82 22.5h729q41 0 62.5 -35t21.5 -80q0 -49 -22.5 -83.5t-61.5 -34.5h-580v-410h311q39 0 61.5 -31.5t22.5 -74.5q0 -39 -21.5 -71t-62.5 -32h-311v-412h580q39 0 61.5 -34.5t22.5 -83.5q0 -45 -21.5 -80t-62.5 -35h-729q-47 0 -82 22.5 t-35 61.5zM506 1788q0 43 30.5 74.5t73.5 31.5t73 -31.5t30 -74.5t-30 -76t-73 -33t-73.5 33t-30.5 76z" />
<glyph unicode="&#x117;" horiz-adv-x="991" d="M66 401v174q0 168 131 289t317 121q174 0 298 -109.5t124 -275.5q0 -61 -15.5 -101t-47 -56.5t-58.5 -20.5t-70 -4h-415v-31q0 -88 65.5 -142.5t173.5 -54.5q78 0 154 39t98 39q43 0 72 -40t29 -76q0 -57 -103.5 -113.5t-257.5 -56.5q-219 0 -357 115.5t-138 303.5z M330 573h299q33 0 46 11.5t13 44.5q0 72 -52 117t-128 45q-72 0 -125 -44.5t-53 -115.5v-58zM406 1290q0 43 30.5 75t73.5 32t72.5 -32t29.5 -75t-29.5 -75.5t-72.5 -32.5t-73.5 32.5t-30.5 75.5z" />
<glyph unicode="&#x118;" horiz-adv-x="1085" d="M123 84v1329q0 39 35 61.5t82 22.5h729q41 0 62.5 -35t21.5 -80q0 -49 -22.5 -83.5t-61.5 -34.5h-580v-410h311q39 0 61.5 -31.5t22.5 -74.5q0 -39 -21.5 -71t-62.5 -32h-311v-412h580q39 0 61.5 -34.5t22.5 -83.5q0 -84 -56 -109q-63 -43 -104 -107.5t-41 -125.5 q0 -96 123 -97q47 0 47 -59q0 -53 -59 -53q-115 0 -177.5 50t-62.5 134q0 139 123 252h-606q-47 0 -82 22.5t-35 61.5z" />
<glyph unicode="&#x119;" horiz-adv-x="991" d="M66 401v174q0 168 131 289t317 121q174 0 298 -109.5t124 -275.5q0 -61 -15.5 -101t-47 -56.5t-58.5 -20.5t-70 -4h-415v-31q0 -88 65.5 -142.5t173.5 -54.5q78 0 154 39t98 39q43 0 72 -40t29 -76q0 -31 -36 -66t-95 -61q-70 -43 -115 -111t-45 -131q0 -96 123 -96 q47 0 47 -60q0 -53 -60 -53q-115 0 -177 50t-62 134q0 119 94 226q-10 -2 -35 -2q-219 0 -357 115.5t-138 303.5zM330 573h299q33 0 46 11.5t13 44.5q0 72 -52 117t-128 45q-72 0 -125 -44.5t-53 -115.5v-58z" />
<glyph unicode="&#x11a;" horiz-adv-x="1085" d="M123 84v1329q0 39 35 61.5t82 22.5h729q41 0 62.5 -35t21.5 -80q0 -49 -22.5 -83.5t-61.5 -34.5h-580v-410h311q39 0 61.5 -31.5t22.5 -74.5q0 -39 -21.5 -71t-62.5 -32h-311v-412h580q39 0 61.5 -34.5t22.5 -83.5q0 -45 -21.5 -80t-62.5 -35h-729q-47 0 -82 22.5 t-35 61.5zM293 1917q0 31 16.5 55.5t40.5 24.5q14 0 25 -8l211 -136l209 136q14 8 24 8q25 0 41.5 -24.5t16.5 -55.5q0 -51 -43 -78l-211 -135q-20 -12 -37 -12q-18 0 -37 12l-211 135q-45 27 -45 78z" />
<glyph unicode="&#x11b;" horiz-adv-x="991" d="M66 401v174q0 168 131 289t317 121q174 0 298 -109.5t124 -275.5q0 -61 -15.5 -101t-47 -56.5t-58.5 -20.5t-70 -4h-415v-31q0 -88 65.5 -142.5t173.5 -54.5q78 0 154 39t98 39q43 0 72 -40t29 -76q0 -57 -103.5 -113.5t-257.5 -56.5q-219 0 -357 115.5t-138 303.5z M221 1419q0 31 16.5 55.5t41.5 24.5q14 0 24 -8l211 -135l209 135q14 8 25 8q25 0 41 -24.5t16 -55.5q0 -51 -43 -78l-211 -135q-23 -12 -37 -12q-18 0 -37 12l-211 135q-45 27 -45 78zM330 573h299q33 0 46 11.5t13 44.5q0 72 -52 117t-128 45q-72 0 -125 -44.5t-53 -115.5 v-58z" />
<glyph unicode="&#x11c;" horiz-adv-x="1155" d="M106 457v571q0 242 130.5 355.5t341.5 113.5q217 0 353 -106.5t136 -286.5q0 -74 -31.5 -100.5t-101.5 -26.5q-131 0 -133 84q-6 90 -51 146.5t-162 56.5q-215 0 -215 -236v-571q0 -236 213 -236q102 0 158.5 59.5t56.5 176.5v121h-166q-39 0 -60.5 30.5t-21.5 73.5 q0 41 22.5 72.5t59.5 31.5h348q39 0 61.5 -25.5t22.5 -60.5v-243q0 -244 -131 -356.5t-350 -112.5t-349.5 112.5t-130.5 356.5zM268 1759q0 53 45 76l213 115q16 10 35 10q14 0 35 -10l213 -113q43 -27 43 -80q0 -31 -16.5 -55.5t-40.5 -24.5q-12 0 -21 6l-213 115 l-213 -115q-12 -6 -22 -6q-25 0 -41.5 24.5t-16.5 57.5z" />
<glyph unicode="&#x11d;" horiz-adv-x="962" d="M31 -164q0 141 149 217q-86 41 -86 131t105 160q-127 98 -127 260v43q0 150 110.5 244t288.5 94q135 0 234 -59q61 139 124 139q47 0 76 -26.5t29 -55.5q0 -33 -33 -57q-76 -53 -96 -78q72 -84 72 -201v-43q0 -147 -114 -244.5t-292 -97.5q-74 0 -133 19q-25 -20 -25 -41 q0 -35 63.5 -51.5t155 -27.5t181.5 -33t153.5 -87.5t63.5 -171.5q0 -160 -129 -241t-318 -81q-190 0 -321 78t-131 211zM188 1262q0 53 45 75l213 115q16 10 35 10q14 0 35 -10l213 -113q43 -27 43 -79q0 -31 -16.5 -55.5t-40.5 -24.5q-10 0 -21 6l-213 114l-213 -114 q-12 -6 -22 -6q-25 0 -41.5 24.5t-16.5 57.5zM281 -137q0 -68 57 -107t141 -39t139.5 39t55.5 105q0 29 -10.5 50t-36 35.5t-45 24t-62.5 16.5t-62.5 9t-66.5 8q-110 -51 -110 -141zM328 606q0 -80 39 -132t108 -52q68 0 107 50t39 132v43q0 76 -40 127t-107.5 51 t-106.5 -50t-39 -128v-41z" />
<glyph unicode="&#x11e;" horiz-adv-x="1155" d="M106 457v571q0 242 130.5 355.5t341.5 113.5q217 0 353 -106.5t136 -286.5q0 -74 -31.5 -100.5t-101.5 -26.5q-131 0 -133 84q-6 90 -51 146.5t-162 56.5q-215 0 -215 -236v-571q0 -236 213 -236q102 0 158.5 59.5t56.5 176.5v121h-166q-39 0 -60.5 30.5t-21.5 73.5 q0 41 22.5 72.5t59.5 31.5h348q39 0 61.5 -25.5t22.5 -60.5v-243q0 -244 -131 -356.5t-350 -112.5t-349.5 112.5t-130.5 356.5zM311 1974h144q0 -66 38.5 -109.5t90.5 -43.5q49 0 89 44t40 109h143q0 -109 -83 -190.5t-189.5 -81.5t-189.5 81.5t-83 190.5z" />
<glyph unicode="&#x11f;" horiz-adv-x="962" d="M31 -164q0 141 149 217q-86 41 -86 131t105 160q-127 98 -127 260v43q0 150 110.5 244t288.5 94q135 0 234 -59q61 139 124 139q47 0 76 -26.5t29 -55.5q0 -33 -33 -57q-76 -53 -96 -78q72 -84 72 -201v-43q0 -147 -114 -244.5t-292 -97.5q-74 0 -133 19q-25 -20 -25 -41 q0 -35 63.5 -51.5t155 -27.5t181.5 -33t153.5 -87.5t63.5 -171.5q0 -160 -129 -241t-318 -81q-190 0 -321 78t-131 211zM207 1477h143q0 -66 39 -110t90 -44q49 0 89 44t40 110h144q0 -109 -83 -191t-189.5 -82t-189.5 82t-83 191zM281 -137q0 -68 57 -107t141 -39t139.5 39 t55.5 105q0 29 -10.5 50t-36 35.5t-45 24t-62.5 16.5t-62.5 9t-66.5 8q-110 -51 -110 -141zM328 606q0 -80 39 -132t108 -52q68 0 107 50t39 132v43q0 76 -40 127t-107.5 51t-106.5 -50t-39 -128v-41z" />
<glyph unicode="&#x120;" horiz-adv-x="1155" d="M106 457v571q0 242 130.5 355.5t341.5 113.5q217 0 353 -106.5t136 -286.5q0 -74 -31.5 -100.5t-101.5 -26.5q-131 0 -133 84q-6 90 -51 146.5t-162 56.5q-215 0 -215 -236v-571q0 -236 213 -236q102 0 158.5 59.5t56.5 176.5v121h-166q-39 0 -60.5 30.5t-21.5 73.5 q0 41 22.5 72.5t59.5 31.5h348q39 0 61.5 -25.5t22.5 -60.5v-243q0 -244 -131 -356.5t-350 -112.5t-349.5 112.5t-130.5 356.5zM475 1788q0 43 31 74.5t74 31.5t72.5 -31.5t29.5 -74.5t-29.5 -76t-72.5 -33t-74 33t-31 76z" />
<glyph unicode="&#x121;" horiz-adv-x="962" d="M31 -164q0 141 149 217q-86 41 -86 131t105 160q-127 98 -127 260v43q0 150 110.5 244t288.5 94q135 0 234 -59q61 139 124 139q47 0 76 -26.5t29 -55.5q0 -33 -33 -57q-76 -53 -96 -78q72 -84 72 -201v-43q0 -147 -114 -244.5t-292 -97.5q-74 0 -133 19q-25 -20 -25 -41 q0 -35 63.5 -51.5t155 -27.5t181.5 -33t153.5 -87.5t63.5 -171.5q0 -160 -129 -241t-318 -81q-190 0 -321 78t-131 211zM281 -137q0 -68 57 -107t141 -39t139.5 39t55.5 105q0 29 -10.5 50t-36 35.5t-45 24t-62.5 16.5t-62.5 9t-66.5 8q-110 -51 -110 -141zM328 606 q0 -80 39 -132t108 -52q68 0 107 50t39 132v43q0 76 -40 127t-107.5 51t-106.5 -50t-39 -128v-41zM375 1290q0 43 30.5 75t73.5 32t73 -32t30 -75t-30 -75.5t-73 -32.5t-73.5 32.5t-30.5 75.5z" />
<glyph unicode="&#x122;" horiz-adv-x="1155" d="M106 457v571q0 242 130.5 355.5t341.5 113.5q217 0 353 -106.5t136 -286.5q0 -74 -31.5 -100.5t-101.5 -26.5q-131 0 -133 84q-6 90 -51 146.5t-162 56.5q-215 0 -215 -236v-571q0 -236 213 -236q102 0 158.5 59.5t56.5 176.5v121h-166q-39 0 -60.5 30.5t-21.5 73.5 q0 41 22.5 72.5t59.5 31.5h348q39 0 61.5 -25.5t22.5 -60.5v-243q0 -244 -131 -356.5t-350 -112.5t-349.5 112.5t-130.5 356.5zM377 -297q0 43 35 61l270 132q14 6 27 6q33 0 57.5 -32t24.5 -69q0 -47 -37 -63l-267 -127q-20 -8 -28 -8q-33 0 -57.5 32.5t-24.5 67.5z" />
<glyph unicode="&#x123;" horiz-adv-x="962" d="M31 -164q0 141 149 217q-86 41 -86 131t105 160q-127 98 -127 260v43q0 150 110.5 244t288.5 94q135 0 234 -59q61 139 124 139q47 0 76 -26.5t29 -55.5q0 -33 -33 -57q-76 -53 -96 -78q72 -84 72 -201v-43q0 -147 -114 -244.5t-292 -97.5q-74 0 -133 19q-25 -20 -25 -41 q0 -35 63.5 -51.5t155 -27.5t181.5 -33t153.5 -87.5t63.5 -171.5q0 -160 -129 -241t-318 -81q-190 0 -321 78t-131 211zM281 -137q0 -68 57 -107t141 -39t139.5 39t55.5 105q0 29 -10.5 50t-36 35.5t-45 24t-62.5 16.5t-62.5 9t-66.5 8q-110 -51 -110 -141zM303 1264 q0 47 35 63l270 131q20 4 27 4q33 0 57.5 -31.5t24.5 -68.5q0 -45 -37 -62l-266 -129q-20 -8 -29 -8q-33 0 -57.5 33t-24.5 68zM328 606q0 -80 39 -132t108 -52q68 0 107 50t39 132v43q0 76 -40 127t-107.5 51t-106.5 -50t-39 -128v-41zM348 1714q0 37 115 301q14 33 53 33 q31 0 59.5 -19.5t28.5 -50.5q0 -10 -6 -28l-49 -109q76 -41 76 -125q0 -57 -40 -98t-97.5 -41t-98.5 41t-41 96z" />
<glyph unicode="&#x124;" horiz-adv-x="1239" d="M123 84v1331q0 41 39 61.5t94 20.5t94 -20.5t39 -61.5v-534h461v534q0 41 39 61.5t94 20.5t94 -20.5t39 -61.5v-1331q0 -39 -40 -61.5t-93 -22.5q-55 0 -94 22.5t-39 61.5v588h-461v-588q0 -39 -40 -61.5t-93 -22.5q-55 0 -94 22.5t-39 61.5zM328 1759q0 53 45 76 l213 115q16 10 35 10q14 0 34 -10l213 -113q43 -27 43 -80q0 -31 -16 -55.5t-41 -24.5q-10 0 -20 6l-213 115l-213 -115q-12 -6 -23 -6q-25 0 -41 24.5t-16 57.5z" />
<glyph unicode="&#x125;" d="M-61 1784q0 53 45 76l213 114q16 10 34 11q14 0 35 -11l213 -112q43 -27 43 -80q0 -31 -16.5 -55.5t-40.5 -24.5q-10 0 -21 6l-213 115l-213 -115q-12 -6 -22 -6q-25 0 -41 24.5t-16 57.5zM104 84v1374q0 37 36 59.5t96 22.5q55 0 94 -22.5t39 -59.5v-629q31 66 98.5 111 t159.5 45q141 0 246.5 -123t105.5 -293v-485q0 -39 -40 -61.5t-93 -22.5q-51 0 -91 22.5t-40 61.5v485q0 70 -53.5 127.5t-124.5 57.5q-68 0 -118 -51.5t-50 -133.5v-485q0 -31 -40 -57.5t-93 -26.5q-55 0 -93.5 25.5t-38.5 58.5z" />
<glyph unicode="&#x126;" horiz-adv-x="1249" d="M35 1179.5q0 34.5 18.5 61.5t48.5 27h27v147q0 41 39 61.5t94 20.5t94 -20.5t39 -61.5v-147h461v147q0 41 39 61.5t94 20.5t94 -20.5t39 -61.5v-147h23q31 0 49 -27t18 -61.5t-18 -60t-49 -25.5h-23v-1010q0 -39 -40 -61.5t-93 -22.5q-55 0 -94 22.5t-39 61.5v588h-461 v-588q0 -39 -40 -61.5t-93 -22.5q-55 0 -94 22.5t-39 61.5v1010h-27q-31 0 -49 25.5t-18 60zM395 881h461v213h-461v-213z" />
<glyph unicode="&#x127;" d="M-31 1223q0 37 22.5 62.5t59.5 25.5h53v147q0 37 36 59.5t96 22.5q55 0 94 -22.5t39 -59.5v-147h102q33 0 58.5 -25.5t25.5 -62.5t-25.5 -61.5t-58.5 -24.5h-102v-308q31 66 98.5 111t159.5 45q141 0 246.5 -123t105.5 -293v-485q0 -39 -40 -61.5t-93 -22.5 q-51 0 -91 22.5t-40 61.5v485q0 70 -53.5 127.5t-124.5 57.5q-68 0 -118 -51.5t-50 -133.5v-485q0 -31 -40 -57.5t-93 -26.5q-55 0 -93.5 25.5t-38.5 58.5v1053h-53q-37 0 -59.5 23.5t-22.5 62.5z" />
<glyph unicode="&#x128;" horiz-adv-x="512" d="M-94 1798q0 57 37 91t70.5 41t68.5 7q61 0 149 -29.5t142 -29.5q49 0 99 24.5t67 24.5q35 0 51 -30.5t16 -55.5q0 -45 -19.5 -74.5t-51 -43t-56 -17.5t-47.5 -4q-72 0 -158 29.5t-133 29.5q-49 0 -100 -24.5t-68 -24.5q-35 0 -51 30.5t-16 55.5zM123 84v1331 q0 41 39 61.5t94 20.5t94 -20.5t39 -61.5v-1331q0 -39 -40 -61.5t-93 -22.5q-55 0 -94 22.5t-39 61.5z" />
<glyph unicode="&#x129;" horiz-adv-x="468" d="M-115 1300q0 57 37 91t71 41.5t68 7.5q61 0 149.5 -30t141.5 -30q49 0 99.5 25t66.5 25q35 0 51.5 -31t16.5 -56q0 -45 -19.5 -74.5t-51.5 -43t-56.5 -17.5t-46.5 -4q-72 0 -158 30t-133 30q-49 0 -100.5 -25t-67.5 -25q-35 0 -51.5 30.5t-16.5 55.5zM102 84v807 q0 37 37 59.5t94.5 22.5t95.5 -22.5t38 -59.5v-807q0 -31 -40 -57.5t-94 -26.5q-55 0 -93 25.5t-38 58.5z" />
<glyph unicode="&#x12a;" horiz-adv-x="512" d="M-39 1833q0 37 22.5 62.5t59.5 25.5h420q33 0 58.5 -25.5t25.5 -62.5t-25.5 -61.5t-58.5 -24.5h-420q-37 0 -59.5 23.5t-22.5 62.5zM123 84v1331q0 41 39 61.5t94 20.5t94 -20.5t39 -61.5v-1331q0 -39 -40 -61.5t-93 -22.5q-55 0 -94 22.5t-39 61.5z" />
<glyph unicode="&#x12b;" horiz-adv-x="468" d="M-57 1335q0 37 22.5 62.5t59.5 25.5h419q33 0 58.5 -25.5t25.5 -62.5t-25.5 -61.5t-58.5 -24.5h-419q-37 0 -59.5 23.5t-22.5 62.5zM102 84v807q0 37 37 59.5t94.5 22.5t95.5 -22.5t38 -59.5v-807q0 -31 -40 -57.5t-94 -26.5q-55 0 -93 25.5t-38 58.5z" />
<glyph unicode="&#x12c;" horiz-adv-x="512" d="M-16 1974h143q0 -66 39 -109.5t90 -43.5q49 0 89 44t40 109h143q0 -109 -83 -190.5t-189 -81.5t-189 81.5t-83 190.5zM123 84v1331q0 41 39 61.5t94 20.5t94 -20.5t39 -61.5v-1331q0 -39 -40 -61.5t-93 -22.5q-55 0 -94 22.5t-39 61.5z" />
<glyph unicode="&#x12d;" horiz-adv-x="468" d="M-37 1477h143q0 -66 39 -110t91 -44q49 0 89 44t40 110h143q0 -109 -83 -191t-189.5 -82t-189.5 82t-83 191zM102 84v807q0 37 37 59.5t94.5 22.5t95.5 -22.5t38 -59.5v-807q0 -31 -40 -57.5t-94 -26.5q-55 0 -93 25.5t-38 58.5z" />
<glyph unicode="&#x12e;" horiz-adv-x="512" d="M47 -250q0 150 133 262q-57 20 -57 72v1331q0 41 39 61.5t94 20.5t94 -20.5t39 -61.5v-1331q0 -45 -59 -72q-68 -41 -111 -108.5t-43 -128.5q0 -96 123 -97q47 0 47 -59q0 -53 -59 -53q-115 0 -177.5 50t-62.5 134z" />
<glyph unicode="&#x12f;" horiz-adv-x="468" d="M20 -252q0 154 140 266q-57 27 -58 70v807q0 37 37 59.5t94.5 22.5t95.5 -22.5t38 -59.5v-807q0 -41 -58 -70q-70 -43 -114.5 -110.5t-44.5 -130.5q0 -96 122 -97q47 0 47 -59q0 -53 -59 -53q-115 0 -177.5 50t-62.5 134zM88 1319q0 53 42 91t103 38q59 0 101.5 -38 t42.5 -91q0 -51 -42 -90t-102 -39q-61 0 -103 39t-42 90z" />
<glyph unicode="&#x130;" horiz-adv-x="512" d="M123 84v1331q0 41 39 61.5t94 20.5t94 -20.5t39 -61.5v-1331q0 -39 -40 -61.5t-93 -22.5q-55 0 -94 22.5t-39 61.5zM154 1788q0 43 30.5 74.5t73.5 31.5t72.5 -31.5t29.5 -74.5t-29.5 -76t-72.5 -33t-73.5 33t-30.5 76z" />
<glyph unicode="&#x131;" horiz-adv-x="468" d="M102 84v807q0 37 37 59.5t94.5 22.5t95.5 -22.5t38 -59.5v-807q0 -31 -40 -57.5t-94 -26.5q-55 0 -93 25.5t-38 58.5z" />
<glyph unicode="&#x132;" horiz-adv-x="1599" d="M123 84v1331q0 41 39 61.5t94 20.5t94 -20.5t39 -61.5v-1331q0 -39 -40 -61.5t-93 -22.5q-55 0 -94 22.5t-39 61.5zM522 395q0 74 31 101.5t102 27.5q125 0 133 -84q8 -219 211 -219q217 0 218 236v807h-209q-39 0 -61.5 34.5t-22.5 83.5q0 47 21.5 81t62.5 34h358 q47 0 82 -22.5t35 -61.5v-956q0 -242 -130 -355.5t-341 -113.5q-217 0 -353.5 109.5t-136.5 297.5z" />
<glyph unicode="&#x133;" horiz-adv-x="897" d="M88 1319q0 53 42 91t103 38q59 0 101.5 -38t42.5 -91q0 -51 -42 -90t-102 -39q-61 0 -103 39t-42 90zM102 84v807q0 37 37 59.5t94.5 22.5t95.5 -22.5t38 -59.5v-807q0 -31 -40 -57.5t-94 -26.5q-55 0 -93 25.5t-38 58.5zM346 -344q0 51 28.5 83t71.5 32q51 0 66.5 41 t15.5 122v957q0 37 37 59.5t92 22.5q57 0 96.5 -22.5t39.5 -59.5v-957q0 -176 -80 -281.5t-230 -105.5q-137 0 -137 109zM514 1319q0 53 42 91t103 38q59 0 101.5 -38t42.5 -91q0 -51 -42 -90t-102 -39q-61 0 -103 39t-42 90z" />
<glyph unicode="&#x134;" horiz-adv-x="1103" d="M27 395q0 74 30.5 101.5t102.5 27.5q125 0 133 -84q8 -219 211 -219q217 0 217 236v807h-209q-39 0 -61.5 34.5t-22.5 83.5q0 47 21.5 81t62.5 34h358q47 0 82 -22.5t35 -61.5v-956q0 -242 -130 -355.5t-341 -113.5q-217 0 -353 109.5t-136 297.5zM262 1759q0 53 45 76 l213 115q16 10 35 10q14 0 35 -10l213 -113q43 -27 43 -80q0 -31 -16.5 -55.5t-41.5 -24.5q-10 0 -20 6l-213 115l-213 -115q-12 -6 -23 -6q-25 0 -41 24.5t-16 57.5z" />
<glyph unicode="&#x135;" horiz-adv-x="473" d="M-78 -344q0 51 29 83t72 32q51 0 66 41t15 122v957q0 37 37 59.5t92 22.5q57 0 96.5 -22.5t39.5 -59.5v-957q0 -176 -80 -281.5t-230 -105.5q-137 0 -137 109zM-55 1262q0 53 45 75l213 115q16 10 35 10q14 0 34 -10l213 -113q43 -27 43 -79q0 -31 -16 -55.5t-41 -24.5 q-12 0 -20 6l-213 114l-213 -114q-12 -6 -23 -6q-25 0 -41 24.5t-16 57.5z" />
<glyph unicode="&#x136;" horiz-adv-x="1130" d="M123 84v1331q0 41 39 61.5t94 20.5t94 -20.5t39 -61.5v-559l442 602q29 39 74 39q51 0 102.5 -44t51.5 -93q0 -31 -17 -51l-366 -459l446 -680q14 -20 15 -47q0 -49 -50.5 -91t-109.5 -42q-61 0 -92 51l-385 584l-111 -140v-401q0 -39 -40 -61.5t-93 -22.5 q-55 0 -94 22.5t-39 61.5zM367 -297q0 43 34 61l271 132q16 6 26 6q33 0 57.5 -32t24.5 -69q0 -47 -37 -63l-266 -127q-20 -8 -28 -8q-33 0 -57.5 32.5t-24.5 67.5z" />
<glyph unicode="&#x137;" horiz-adv-x="1007" d="M104 84v1374q0 37 36 59.5t93.5 22.5t96.5 -22.5t39 -59.5v-858l385 363q25 20 53 20q43 0 86 -41t43 -86q0 -27 -23 -49l-241 -219l301 -430q14 -20 14 -43q0 -45 -50 -88t-99 -43q-41 0 -66 34l-276 408l-127 -117v-225q0 -31 -41 -57.5t-95 -26.5q-55 0 -92 25.5 t-37 58.5zM295 -297q0 43 35 61l270 132q14 6 27 6q33 0 57.5 -32t24.5 -69q0 -47 -37 -63l-266 -127q-20 -8 -29 -8q-33 0 -57.5 32.5t-24.5 67.5z" />
<glyph unicode="&#x138;" horiz-adv-x="1005" d="M102 84v807q0 37 36 59.5t93.5 22.5t96.5 -22.5t39 -59.5v-291l385 363q25 20 53 20q43 0 86 -41t43 -86q0 -27 -23 -49l-241 -219l301 -430q14 -20 14 -43q0 -45 -50 -88t-99 -43q-41 0 -66 34l-276 408l-127 -117v-225q0 -31 -41 -57.5t-95 -26.5q-55 0 -92 25.5 t-37 58.5z" />
<glyph unicode="&#x139;" horiz-adv-x="991" d="M123 84v1331q0 41 39 61.5t94 20.5t94 -20.5t39 -61.5v-1182h500q37 0 58.5 -34.5t21.5 -81.5t-21.5 -82t-58.5 -35h-649q-47 0 -82 22.5t-35 61.5zM319 1761q0 45 35 64l271 131q20 4 26 4q33 0 57.5 -32t24.5 -68q0 -45 -37 -62l-266 -129q-20 -8 -29 -8 q-33 0 -57.5 32.5t-24.5 67.5z" />
<glyph unicode="&#x13a;" horiz-adv-x="505" d="M94 1726q0 47 35 64l270 131q20 4 27 4q33 0 57.5 -31.5t24.5 -68.5q0 -45 -37 -62l-266 -129q-20 -8 -29 -8q-33 0 -57.5 32.5t-24.5 67.5zM121 84v1374q0 37 36 59.5t95 22.5q55 0 94 -22.5t39 -59.5v-1374q0 -31 -40 -57.5t-93 -26.5q-55 0 -93 25.5t-38 58.5z" />
<glyph unicode="&#x13b;" horiz-adv-x="991" d="M123 84v1331q0 41 39 61.5t94 20.5t94 -20.5t39 -61.5v-1182h500q37 0 58.5 -34.5t21.5 -81.5t-21.5 -82t-58.5 -35h-649q-47 0 -82 22.5t-35 61.5zM322 -297q0 43 34 61l271 132q16 6 26 6q33 0 57.5 -32t24.5 -69q0 -47 -37 -63l-266 -127q-20 -8 -29 -8 q-33 0 -57 32.5t-24 67.5z" />
<glyph unicode="&#x13c;" horiz-adv-x="505" d="M47 -297q0 43 35 61l270 132q16 6 27 6q33 0 57.5 -32t24.5 -69q0 -47 -37 -63l-266 -127q-20 -8 -29 -8q-33 0 -57.5 32.5t-24.5 67.5zM121 84v1374q0 37 36 59.5t95 22.5q55 0 94 -22.5t39 -59.5v-1374q0 -31 -40 -57.5t-93 -26.5q-55 0 -93 25.5t-38 58.5z" />
<glyph unicode="&#x13d;" horiz-adv-x="993" d="M123 84v1331q0 41 39 61.5t94 20.5t94 -20.5t39 -61.5v-1182h500q37 0 58.5 -34.5t21.5 -81.5t-21.5 -82t-58.5 -35h-649q-47 0 -82 22.5t-35 61.5zM629 1378q0 57 40 98.5t97 41.5t98 -41t41 -97q0 -37 -112 -301q-16 -33 -56 -32q-31 0 -59.5 19t-28.5 50q0 14 8 29 l48 108q-76 41 -76 125z" />
<glyph unicode="&#x13e;" horiz-adv-x="505" d="M121 84v1374q0 37 36 59.5t95 22.5q55 0 94 -22.5t39 -59.5v-1374q0 -31 -40 -57.5t-93 -26.5q-55 0 -93 25.5t-38 58.5zM494 1378q0 57 39.5 98.5t97 41.5t98.5 -41t41 -97q0 -37 -113 -301q-16 -33 -55 -32q-31 0 -59.5 19t-28.5 50q0 14 8 29l47 108q-75 41 -75 125z " />
<glyph unicode="&#x13f;" horiz-adv-x="993" d="M123 84v1331q0 41 39 61.5t94 20.5t94 -20.5t39 -61.5v-1182h500q37 0 58.5 -34.5t21.5 -81.5t-21.5 -82t-58.5 -35h-649q-47 0 -82 22.5t-35 61.5zM606 862q0 53 43 91t104.5 38t103.5 -38t42 -91t-42 -92t-103.5 -39t-104.5 39t-43 92z" />
<glyph unicode="&#x140;" horiz-adv-x="757" d="M121 84v1374q0 37 36 59.5t95 22.5q55 0 94 -22.5t39 -59.5v-1374q0 -31 -40 -57.5t-93 -26.5q-55 0 -93 25.5t-38 58.5zM465 614.5q0 53.5 43 91t104.5 37.5t103.5 -37.5t42 -91t-42 -92.5t-103.5 -39t-104.5 39t-43 92.5z" />
<glyph unicode="&#x141;" horiz-adv-x="1003" d="M-14 635q0 47 32 61l117 58v661q0 41 39 61.5t94.5 20.5t94 -20.5t38.5 -61.5v-532l123 61q8 4 25 4q35 0 64.5 -39t29.5 -78q0 -45 -35 -61l-207 -102v-435h500q37 0 58.5 -34.5t21.5 -81.5t-21.5 -82t-58.5 -35h-649q-47 0 -82 22.5t-35 61.5v455l-33 -17 q-12 -6 -24 -6q-37 0 -64.5 38t-27.5 81z" />
<glyph unicode="&#x142;" horiz-adv-x="653" d="M20 635q0 47 33 61l140 68v694q0 37 35.5 59.5t95.5 22.5q55 0 94 -22.5t39 -59.5v-565l61 31q12 6 23 6q37 0 65.5 -39t28.5 -80q0 -45 -35 -61l-143 -72v-594q0 -31 -40 -57.5t-93 -26.5q-55 0 -93 25.5t-38 58.5v465l-56 -27q-12 -6 -24 -6q-37 0 -65 38t-28 81z" />
<glyph unicode="&#x143;" horiz-adv-x="1239" d="M123 84v1329q0 41 39 62.5t94 21.5q74 0 113 -26.5t86 -114.5l395 -764v823q0 41 39 61.5t94 20.5t94 -20.5t39 -61.5v-1331q0 -39 -40 -61.5t-93 -22.5q-109 0 -154 84l-440 823v-823q0 -39 -40 -61.5t-93 -22.5q-55 0 -94 22.5t-39 61.5zM389 1761q0 45 35 64l270 131 q20 4 27 4q33 0 57.5 -32t24.5 -68q0 -45 -37 -62l-266 -129q-20 -8 -29 -8q-33 0 -57.5 32.5t-24.5 67.5z" />
<glyph unicode="&#x144;" horiz-adv-x="1071" d="M102 84v807q0 37 36 59.5t95 22.5q49 0 83 -22.5t34 -59.5v-62q33 66 105.5 111t169.5 45q141 0 246.5 -123t105.5 -293v-485q0 -39 -40 -61.5t-93 -22.5q-51 0 -91 22.5t-40 61.5v485q0 72 -53.5 128.5t-124.5 56.5q-68 0 -118 -51.5t-50 -133.5v-485q0 -31 -40 -57.5 t-94 -26.5q-55 0 -93 25.5t-38 58.5zM342 1264q0 47 35 63l270 131q20 4 27 4q33 0 57.5 -31.5t24.5 -68.5q0 -45 -37 -62l-266 -129q-20 -8 -29 -8q-33 0 -57.5 33t-24.5 68z" />
<glyph unicode="&#x145;" horiz-adv-x="1239" d="M123 84v1329q0 41 39 62.5t94 21.5q74 0 113 -26.5t86 -114.5l395 -764v823q0 41 39 61.5t94 20.5t94 -20.5t39 -61.5v-1331q0 -39 -40 -61.5t-93 -22.5q-109 0 -154 84l-440 823v-823q0 -39 -40 -61.5t-93 -22.5q-55 0 -94 22.5t-39 61.5zM412 -297q0 43 34 61l271 132 q16 6 26 6q33 0 57.5 -32t24.5 -69q0 -47 -37 -63l-266 -127q-20 -8 -28 -8q-33 0 -57.5 32.5t-24.5 67.5z" />
<glyph unicode="&#x146;" horiz-adv-x="1071" d="M102 84v807q0 37 36 59.5t95 22.5q49 0 83 -22.5t34 -59.5v-62q33 66 105.5 111t169.5 45q141 0 246.5 -123t105.5 -293v-485q0 -39 -40 -61.5t-93 -22.5q-51 0 -91 22.5t-40 61.5v485q0 72 -53.5 128.5t-124.5 56.5q-68 0 -118 -51.5t-50 -133.5v-485q0 -31 -40 -57.5 t-94 -26.5q-55 0 -93 25.5t-38 58.5zM324 -297q0 43 34 61l271 132q14 6 26 6q33 0 57.5 -32t24.5 -69q0 -47 -37 -63l-266 -127q-20 -8 -28 -8q-33 0 -57.5 32.5t-24.5 67.5z" />
<glyph unicode="&#x147;" horiz-adv-x="1239" d="M123 84v1329q0 41 39 62.5t94 21.5q74 0 113 -26.5t86 -114.5l395 -764v823q0 41 39 61.5t94 20.5t94 -20.5t39 -61.5v-1331q0 -39 -40 -61.5t-93 -22.5q-109 0 -154 84l-440 823v-823q0 -39 -40 -61.5t-93 -22.5q-55 0 -94 22.5t-39 61.5zM328 1917q0 31 16 55.5 t41 24.5q14 0 25 -8l211 -136l208 136q14 8 25 8q25 0 41 -24.5t16 -55.5q0 -51 -43 -78l-211 -135q-23 -12 -36 -12q-18 0 -37 12l-211 135q-45 27 -45 78z" />
<glyph unicode="&#x148;" horiz-adv-x="1071" d="M102 84v807q0 37 36 59.5t95 22.5q49 0 83 -22.5t34 -59.5v-62q33 66 105.5 111t169.5 45q141 0 246.5 -123t105.5 -293v-485q0 -39 -40 -61.5t-93 -22.5q-51 0 -91 22.5t-40 61.5v485q0 72 -53.5 128.5t-124.5 56.5q-68 0 -118 -51.5t-50 -133.5v-485q0 -31 -40 -57.5 t-94 -26.5q-55 0 -93 25.5t-38 58.5zM236 1419q0 31 16 55.5t41 24.5q14 0 24 -8l211 -135l209 135q14 8 25 8q25 0 41 -24.5t16 -55.5q0 -51 -43 -78l-211 -135q-20 -12 -37 -12q-18 0 -36 12l-211 135q-45 27 -45 78z" />
<glyph unicode="&#x14a;" horiz-adv-x="1241" d="M123 84v1329q0 41 39 62.5t94 21.5q74 0 113 -26.5t86 -114.5l395 -764v823q0 41 39 61.5t94 20.5t94 -20.5t39 -61.5v-1481q0 -176 -80 -281.5t-229 -105.5q-137 0 -137 109q0 51 28.5 83t71.5 32q47 0 63.5 41t16.5 122v78q0 33 -21 72l-440 823v-823q0 -39 -40 -61.5 t-93 -22.5q-55 0 -94 22.5t-39 61.5z" />
<glyph unicode="&#x14b;" d="M102 84v807q0 37 36 59.5t95 22.5q49 0 83 -22.5t34 -59.5v-62q33 66 105.5 111t169.5 45q141 0 246.5 -123t105.5 -293v-635q0 -176 -80 -281.5t-229 -105.5q-137 0 -138 109q0 51 29 83t72 32q49 0 65.5 41t16.5 122v635q0 72 -53.5 128.5t-124.5 56.5 q-68 0 -118 -51.5t-50 -133.5v-485q0 -31 -40 -57.5t-94 -26.5q-55 0 -93 25.5t-38 58.5z" />
<glyph unicode="&#x14c;" horiz-adv-x="1171" d="M106 457v571q0 244 130.5 356.5t349.5 112.5t350 -112.5t131 -356.5v-571q0 -244 -131 -356.5t-350 -112.5t-349.5 112.5t-130.5 356.5zM293 1833q0 37 22.5 62.5t59.5 25.5h420q33 0 58.5 -25.5t25.5 -62.5t-26 -61.5t-58 -24.5h-420q-37 0 -59.5 23.5t-22.5 62.5z M373 457q0 -236 213 -236q215 0 215 236v571q0 236 -215 236q-213 0 -213 -236v-571z" />
<glyph unicode="&#x14d;" horiz-adv-x="1019" d="M66 401v168q0 168 131 292t313 124q178 0 311 -123t133 -293v-168q0 -166 -133 -292.5t-311 -126.5t-311 126.5t-133 292.5zM217 1335q0 37 22.5 62.5t59.5 25.5h420q33 0 58.5 -25.5t25.5 -62.5t-25.5 -61.5t-58.5 -24.5h-420q-37 0 -59.5 23.5t-22.5 62.5zM330 401 q0 -74 53 -131t127 -57q72 0 126 57.5t54 130.5v168q0 70 -54 127.5t-126 57.5q-74 0 -127 -56.5t-53 -128.5v-168z" />
<glyph unicode="&#x14e;" horiz-adv-x="1171" d="M106 457v571q0 244 130.5 356.5t349.5 112.5t350 -112.5t131 -356.5v-571q0 -244 -131 -356.5t-350 -112.5t-349.5 112.5t-130.5 356.5zM311 1974h144q0 -66 38.5 -109.5t90.5 -43.5q49 0 89 44t40 109h143q0 -109 -83 -190.5t-189.5 -81.5t-189.5 81.5t-83 190.5z M373 457q0 -236 213 -236q215 0 215 236v571q0 236 -215 236q-213 0 -213 -236v-571z" />
<glyph unicode="&#x14f;" horiz-adv-x="1019" d="M66 401v168q0 168 131 292t313 124q178 0 311 -123t133 -293v-168q0 -166 -133 -292.5t-311 -126.5t-311 126.5t-133 292.5zM240 1477h143q0 -66 39 -110t90 -44q49 0 89 44t40 110h143q0 -109 -83 -191t-189 -82t-189 82t-83 191zM330 401q0 -74 53 -131t127 -57 q72 0 126 57.5t54 130.5v168q0 70 -54 127.5t-126 57.5q-74 0 -127 -56.5t-53 -128.5v-168z" />
<glyph unicode="&#x150;" horiz-adv-x="1171" d="M106 457v571q0 244 130.5 356.5t349.5 112.5t350 -112.5t131 -356.5v-571q0 -244 -131 -356.5t-350 -112.5t-349.5 112.5t-130.5 356.5zM334 1735q0 18 14 32l172 181q14 16 39 16q29 0 53.5 -25.5t24.5 -52.5q0 -20 -14 -35l-168 -176q-16 -18 -39 -18q-31 0 -56.5 24.5 t-25.5 53.5zM373 457q0 -236 213 -236q215 0 215 236v571q0 236 -215 236q-213 0 -213 -236v-571zM655 1735q0 18 15 32l172 181q16 16 39 16q29 0 53 -25.5t24 -52.5q0 -20 -14 -35l-168 -176q-16 -18 -39 -18q-31 0 -56.5 24.5t-25.5 53.5z" />
<glyph unicode="&#x151;" horiz-adv-x="1019" d="M66 401v168q0 168 131 292t313 124q178 0 311 -123t133 -293v-168q0 -166 -133 -292.5t-311 -126.5t-311 126.5t-133 292.5zM258 1241q0 18 14 33l172 180q14 16 39 16q29 0 53.5 -25.5t24.5 -51.5q0 -20 -14 -35l-168 -176q-16 -18 -39 -19q-31 0 -56.5 24.5t-25.5 53.5 zM330 401q0 -74 53 -131t127 -57q72 0 126 57.5t54 130.5v168q0 70 -54 127.5t-126 57.5q-74 0 -127 -56.5t-53 -128.5v-168zM580 1241q0 18 14 33l172 180q16 16 39 16q29 0 53.5 -25.5t24.5 -51.5q0 -20 -15 -35l-168 -176q-16 -18 -38 -19q-31 0 -56.5 24.5t-25.5 53.5z " />
<glyph unicode="&#x152;" horiz-adv-x="1697" d="M109 457v571q0 244 114.5 356.5t315.5 112.5q92 0 175 -39t124 -112v67q0 39 34.5 61.5t81.5 22.5h629q41 0 61.5 -33.5t20.5 -81.5q0 -49 -21.5 -83.5t-60.5 -34.5h-514v-410h246q39 0 60.5 -30.5t21.5 -75.5q0 -41 -21.5 -72t-60.5 -31h-246v-412h514q39 0 60.5 -34.5 t21.5 -83.5q0 -47 -20.5 -81t-61.5 -34h-629q-47 0 -81.5 22.5t-34.5 61.5v55q-41 -74 -124 -112.5t-175 -38.5q-201 0 -315.5 112.5t-114.5 356.5zM375 457q0 -236 213 -236q215 0 215 236v571q0 236 -215 236q-213 0 -213 -236v-571z" />
<glyph unicode="&#x153;" horiz-adv-x="1615" d="M66 401v168q0 168 131 292t313 124q199 0 324 -162q125 162 303 162q174 0 299 -108.5t125 -274.5q0 -63 -15.5 -102t-47.5 -56.5t-58.5 -21.5t-71.5 -4h-414v-31q0 -88 65.5 -142.5t174.5 -54.5q76 0 152.5 39t99.5 39q43 0 70.5 -40t27.5 -78q0 -57 -103.5 -112.5 t-256.5 -55.5q-223 0 -350 161q-131 -162 -324 -161q-178 0 -311 126.5t-133 292.5zM330 401q0 -74 53 -131t127 -57q72 0 126 57.5t54 130.5v168q0 70 -54 127.5t-126 57.5q-74 0 -127 -56.5t-53 -128.5v-168zM954 573h299q33 0 46.5 11.5t13.5 44.5q0 72 -52.5 117 t-127.5 45q-72 0 -125.5 -44.5t-53.5 -113.5v-60z" />
<glyph unicode="&#x154;" horiz-adv-x="1167" d="M123 84v1331q0 33 24.5 57.5t61.5 24.5h405q485 0 486 -428q0 -168 -73 -270.5t-196 -139.5l269 -497q10 -12 10 -33q0 -51 -53 -95t-112.5 -44t-92.5 63l-291 565h-172v-534q0 -39 -39 -61.5t-94 -22.5q-53 0 -93 22.5t-40 61.5zM389 827h225q219 0 220 217 q0 219 -220 220h-225v-437zM444 1761q0 45 35 64l271 131q20 4 26 4q33 0 57.5 -32t24.5 -68q0 -45 -37 -62l-266 -129q-20 -8 -29 -8q-33 0 -57.5 32.5t-24.5 67.5z" />
<glyph unicode="&#x155;" horiz-adv-x="772" d="M102 84v807q0 37 36 59.5t93 22.5q51 0 85 -22.5t34 -59.5v-84q33 72 102.5 125t149.5 53h64q37 0 66.5 -35t29.5 -80q0 -47 -30 -81.5t-66 -34.5h-64q-94 0 -164.5 -84t-70.5 -219v-367q0 -31 -41 -57.5t-95 -26.5q-55 0 -92 25.5t-37 58.5zM219 1264q0 47 35 63 l270 131q20 4 27 4q33 0 57.5 -31.5t24.5 -68.5q0 -45 -37 -62l-266 -129q-20 -8 -29 -8q-33 0 -57.5 33t-24.5 68z" />
<glyph unicode="&#x156;" horiz-adv-x="1167" d="M123 84v1331q0 33 24.5 57.5t61.5 24.5h405q485 0 486 -428q0 -168 -73 -270.5t-196 -139.5l269 -497q10 -12 10 -33q0 -51 -53 -95t-112.5 -44t-92.5 63l-291 565h-172v-534q0 -39 -39 -61.5t-94 -22.5q-53 0 -93 22.5t-40 61.5zM371 -297q0 43 35 61l270 132q16 6 26 6 q33 0 57.5 -32t24.5 -69q0 -47 -36 -63l-267 -127q-20 -8 -28 -8q-33 0 -57.5 32.5t-24.5 67.5zM389 827h225q219 0 220 217q0 219 -220 220h-225v-437z" />
<glyph unicode="&#x157;" horiz-adv-x="772" d="M14 -297q0 43 35 61l270 132q16 6 27 6q33 0 57.5 -32t24.5 -69q0 -47 -37 -63l-266 -127q-20 -8 -29 -8q-33 0 -57.5 32.5t-24.5 67.5zM102 84v807q0 37 36 59.5t93 22.5q51 0 85 -22.5t34 -59.5v-84q33 72 102.5 125t149.5 53h64q37 0 66.5 -35t29.5 -80 q0 -47 -30 -81.5t-66 -34.5h-64q-94 0 -164.5 -84t-70.5 -219v-367q0 -31 -41 -57.5t-95 -26.5q-55 0 -92 25.5t-37 58.5z" />
<glyph unicode="&#x158;" horiz-adv-x="1167" d="M123 84v1331q0 33 24.5 57.5t61.5 24.5h405q485 0 486 -428q0 -168 -73 -270.5t-196 -139.5l269 -497q10 -12 10 -33q0 -51 -53 -95t-112.5 -44t-92.5 63l-291 565h-172v-534q0 -39 -39 -61.5t-94 -22.5q-53 0 -93 22.5t-40 61.5zM270 1917q0 31 16.5 55.5t41.5 24.5 q14 0 24 -8l211 -136l209 136q14 8 25 8q25 0 41 -24.5t16 -55.5q0 -51 -43 -78l-211 -135q-23 -12 -37 -12q-18 0 -37 12l-211 135q-45 27 -45 78zM389 827h225q219 0 220 217q0 219 -220 220h-225v-437z" />
<glyph unicode="&#x159;" horiz-adv-x="772" d="M102 84v807q0 37 36 59.5t93 22.5q51 0 85 -22.5t34 -59.5v-84q33 72 102.5 125t149.5 53h64q37 0 66.5 -35t29.5 -80q0 -47 -30 -81.5t-66 -34.5h-64q-94 0 -164.5 -84t-70.5 -219v-367q0 -31 -41 -57.5t-95 -26.5q-55 0 -92 25.5t-37 58.5zM102 1419q0 31 16.5 55.5 t41.5 24.5q14 0 24 -8l211 -135l209 135q14 8 25 8q25 0 41 -24.5t16 -55.5q0 -51 -43 -78l-211 -135q-23 -12 -37 -12q-18 0 -37 12l-211 135q-45 27 -45 78z" />
<glyph unicode="&#x15a;" horiz-adv-x="1069" d="M49 236q0 47 36 95t81 48q27 0 60.5 -24.5t65.5 -54.5t91 -54.5t131 -24.5q98 0 163.5 45t65.5 133q0 61 -35.5 109.5t-94 80.5t-128 61.5t-140.5 66.5t-129 83t-94 122.5t-36 175.5q0 109 44 191.5t118 128.5t157.5 67.5t178.5 21.5q53 0 112.5 -7t126 -23.5t108.5 -51 t42 -82.5q0 -45 -29 -93t-78 -48q-18 0 -100 39t-182 39q-111 0 -171.5 -42t-60.5 -116q0 -59 49.5 -103t122 -71.5t157.5 -69.5t157.5 -91.5t122 -142.5t49.5 -218q0 -213 -134.5 -328.5t-353.5 -115.5q-195 0 -334 80t-139 174zM360 1761q0 45 35 64l271 131q20 4 26 4 q33 0 57.5 -32t24.5 -68q0 -45 -37 -62l-266 -129q-20 -8 -29 -8q-33 0 -57.5 32.5t-24.5 67.5z" />
<glyph unicode="&#x15b;" horiz-adv-x="847" d="M47 158q0 37 26.5 76.5t61.5 39.5q23 0 56.5 -22.5t89 -46t131.5 -23.5q150 0 149 88q0 49 -50 78t-121 47.5t-142.5 44t-121.5 86t-50 154.5q0 125 88 215t278 90q127 0 226.5 -39t99.5 -94q0 -35 -27.5 -81t-68.5 -46q-16 0 -89 29.5t-137 29.5q-70 0 -106.5 -28.5 t-36.5 -63.5t37 -57.5t91 -34.5t117.5 -33.5t118 -50.5t91.5 -89t37 -146q0 -139 -99.5 -219t-277.5 -80q-154 0 -262.5 53t-108.5 123zM236 1264q0 47 34 63l271 131q20 4 26 4q33 0 57.5 -31.5t24.5 -68.5q0 -45 -37 -62l-266 -129q-20 -8 -29 -8q-33 0 -57 33t-24 68z " />
<glyph unicode="&#x15c;" horiz-adv-x="1069" d="M49 236q0 47 36 95t81 48q27 0 60.5 -24.5t65.5 -54.5t91 -54.5t131 -24.5q98 0 163.5 45t65.5 133q0 61 -35.5 109.5t-94 80.5t-128 61.5t-140.5 66.5t-129 83t-94 122.5t-36 175.5q0 109 44 191.5t118 128.5t157.5 67.5t178.5 21.5q53 0 112.5 -7t126 -23.5t108.5 -51 t42 -82.5q0 -45 -29 -93t-78 -48q-18 0 -100 39t-182 39q-111 0 -171.5 -42t-60.5 -116q0 -59 49.5 -103t122 -71.5t157.5 -69.5t157.5 -91.5t122 -142.5t49.5 -218q0 -213 -134.5 -328.5t-353.5 -115.5q-195 0 -334 80t-139 174zM238 1759q0 53 45 76l213 115q16 10 34 10 q14 0 35 -10l213 -113q43 -27 43 -80q0 -31 -16.5 -55.5t-40.5 -24.5q-10 0 -21 6l-213 115l-213 -115q-12 -6 -22 -6q-25 0 -41 24.5t-16 57.5z" />
<glyph unicode="&#x15d;" horiz-adv-x="847" d="M47 158q0 37 26.5 76.5t61.5 39.5q23 0 56.5 -22.5t89 -46t131.5 -23.5q150 0 149 88q0 49 -50 78t-121 47.5t-142.5 44t-121.5 86t-50 154.5q0 125 88 215t278 90q127 0 226.5 -39t99.5 -94q0 -35 -27.5 -81t-68.5 -46q-16 0 -89 29.5t-137 29.5q-70 0 -106.5 -28.5 t-36.5 -63.5t37 -57.5t91 -34.5t117.5 -33.5t118 -50.5t91.5 -89t37 -146q0 -139 -99.5 -219t-277.5 -80q-154 0 -262.5 53t-108.5 123zM127 1262q0 53 45 75l213 115q16 10 35 10q14 0 35 -10l213 -113q43 -27 43 -79q0 -31 -16.5 -55.5t-41.5 -24.5q-10 0 -20 6l-213 114 l-213 -114q-12 -6 -23 -6q-25 0 -41 24.5t-16 57.5z" />
<glyph unicode="&#x15e;" horiz-adv-x="1069" d="M49 236q0 47 36 95t81 48q27 0 60.5 -24.5t65.5 -54.5t91 -54.5t131 -24.5q98 0 163.5 45t65.5 133q0 61 -35.5 109.5t-94 80.5t-128 61.5t-140.5 66.5t-129 83t-94 122.5t-36 175.5q0 109 44 191.5t118 128.5t157.5 67.5t178.5 21.5q53 0 112.5 -7t126 -23.5t108.5 -51 t42 -82.5q0 -45 -29 -93t-78 -48q-18 0 -100 39t-182 39q-111 0 -171.5 -42t-60.5 -116q0 -59 49.5 -103t122 -71.5t157.5 -69.5t157.5 -91.5t122 -142.5t49.5 -218q0 -188 -104.5 -300t-282.5 -136l-29 -94q100 -4 151.5 -48.5t51.5 -109.5q0 -68 -52.5 -124t-162.5 -56 q-61 0 -117.5 15t-56.5 44q0 18 13 47t34 29q6 0 43 -14.5t75 -14.5q96 0 96.5 67.5t-98.5 75.5l-112 11l47 164q-188 4 -322.5 83t-134.5 171z" />
<glyph unicode="&#x15f;" horiz-adv-x="847" d="M47 158q0 37 26.5 76.5t61.5 39.5q23 0 56.5 -22.5t89 -46t131.5 -23.5q150 0 149 88q0 49 -50 78t-121 47.5t-142.5 44t-121.5 86t-50 154.5q0 125 88 215t278 90q127 0 226.5 -39t99.5 -94q0 -35 -27.5 -81t-68.5 -46q-16 0 -89 29.5t-137 29.5q-70 0 -106.5 -28.5 t-36.5 -63.5t37 -57.5t91 -34.5t117.5 -33.5t118 -50.5t91.5 -89t37 -146q0 -123 -78 -201t-221 -94l-29 -90q100 -4 151.5 -48.5t51.5 -109.5q0 -68 -52.5 -124t-162.5 -56q-61 0 -117.5 15t-56.5 44q0 18 13 47t34 29q6 0 43 -14.5t75 -14.5q96 0 96.5 67.5t-98.5 75.5 l-112 11l47 166q-141 8 -236.5 59.5t-95.5 114.5z" />
<glyph unicode="&#x160;" horiz-adv-x="1069" d="M49 236q0 47 36 95t81 48q27 0 60.5 -24.5t65.5 -54.5t91 -54.5t131 -24.5q98 0 163.5 45t65.5 133q0 61 -35.5 109.5t-94 80.5t-128 61.5t-140.5 66.5t-129 83t-94 122.5t-36 175.5q0 109 44 191.5t118 128.5t157.5 67.5t178.5 21.5q53 0 112.5 -7t126 -23.5t108.5 -51 t42 -82.5q0 -45 -29 -93t-78 -48q-18 0 -100 39t-182 39q-111 0 -171.5 -42t-60.5 -116q0 -59 49.5 -103t122 -71.5t157.5 -69.5t157.5 -91.5t122 -142.5t49.5 -218q0 -213 -134.5 -328.5t-353.5 -115.5q-195 0 -334 80t-139 174zM238 1917q0 31 16 55.5t41 24.5q14 0 24 -8 l211 -136l209 136q14 8 25 8q25 0 41 -24.5t16 -55.5q0 -51 -43 -78l-211 -135q-23 -12 -37 -12q-18 0 -36 12l-211 135q-45 27 -45 78z" />
<glyph unicode="&#x161;" horiz-adv-x="847" d="M47 158q0 37 26.5 76.5t61.5 39.5q23 0 56.5 -22.5t89 -46t131.5 -23.5q150 0 149 88q0 49 -50 78t-121 47.5t-142.5 44t-121.5 86t-50 154.5q0 125 88 215t278 90q127 0 226.5 -39t99.5 -94q0 -35 -27.5 -81t-68.5 -46q-16 0 -89 29.5t-137 29.5q-70 0 -106.5 -28.5 t-36.5 -63.5t37 -57.5t91 -34.5t117.5 -33.5t118 -50.5t91.5 -89t37 -146q0 -139 -99.5 -219t-277.5 -80q-154 0 -262.5 53t-108.5 123zM133 1419q0 31 16.5 55.5t40.5 24.5q14 0 25 -8l211 -135l209 135q14 8 24 8q25 0 41.5 -24.5t16.5 -55.5q0 -51 -43 -78l-211 -135 q-20 -12 -37 -12q-18 0 -37 12l-211 135q-45 27 -45 78z" />
<glyph unicode="&#x162;" horiz-adv-x="1081" d="M25 1378q0 47 21.5 83t62.5 36h866q41 0 62.5 -36t21.5 -83q0 -49 -22.5 -85t-61.5 -36h-299v-1173q0 -39 -40 -61.5t-93 -22.5q-55 0 -94 22.5t-39 61.5v1173h-301q-39 0 -61.5 35t-22.5 86zM330 -297q0 43 35 61l270 132q16 6 27 6q33 0 57 -32t24 -69q0 -47 -36 -63 l-267 -127q-20 -8 -28 -8q-33 0 -57.5 32.5t-24.5 67.5z" />
<glyph unicode="&#x163;" horiz-adv-x="710" d="M100 332v993q0 35 41 58.5t90 23.5q53 0 93.5 -23.5t40.5 -58.5v-352h241q31 0 49.5 -29t18.5 -67.5t-18.5 -67.5t-49.5 -29h-241v-448q0 -59 25.5 -84t88.5 -25h80q53 0 83 -32.5t30 -77.5q0 -47 -30 -80t-83 -33h-80q-379 0 -379 332zM137 -297q0 43 35 61l270 132 q16 6 27 6q33 0 57.5 -32t24.5 -69q0 -47 -37 -63l-266 -127q-20 -8 -29 -8q-33 0 -57.5 32.5t-24.5 67.5z" />
<glyph unicode="&#x164;" horiz-adv-x="1081" d="M25 1378q0 47 21.5 83t62.5 36h866q41 0 62.5 -36t21.5 -83q0 -49 -22.5 -85t-61.5 -36h-299v-1173q0 -39 -40 -61.5t-93 -22.5q-55 0 -94 22.5t-39 61.5v1173h-301q-39 0 -61.5 35t-22.5 86zM248 1917q0 31 16.5 55.5t40.5 24.5q14 0 25 -8l211 -136l209 136q14 8 24 8 q25 0 41 -24.5t16 -55.5q0 -51 -43 -78l-210 -135q-20 -12 -37 -12q-18 0 -37 12l-211 135q-45 27 -45 78z" />
<glyph unicode="&#x165;" horiz-adv-x="710" d="M100 332v993q0 35 41 58.5t90 23.5q53 0 93.5 -23.5t40.5 -58.5v-352h241q31 0 49.5 -29t18.5 -67.5t-18.5 -67.5t-49.5 -29h-241v-448q0 -59 25.5 -84t88.5 -25h80q53 0 83 -32.5t30 -77.5q0 -47 -30 -80t-83 -33h-80q-379 0 -379 332zM451 1421q0 57 39.5 98.5t97 41.5 t98.5 -41t41 -97q0 -37 -113 -301q-16 -33 -55 -32q-31 0 -59.5 19t-28.5 50q0 14 8 29l47 108q-75 41 -75 125z" />
<glyph unicode="&#x166;" horiz-adv-x="1081" d="M25 1378q0 47 21.5 83t62.5 36h866q41 0 62.5 -36t21.5 -83q0 -49 -22.5 -85t-61.5 -36h-299v-413h172q33 0 51.5 -29t18.5 -67.5t-18.5 -67.5t-51.5 -29h-172v-567q0 -39 -40 -61.5t-93 -22.5q-55 0 -94 22.5t-39 61.5v567h-177q-33 0 -50 29t-17 67.5t17.5 67.5 t49.5 29h177v413h-301q-39 0 -61.5 35t-22.5 86z" />
<glyph unicode="&#x167;" horiz-adv-x="712" d="M100 332v993q0 35 41 58.5t90 23.5q53 0 93.5 -23.5t40.5 -58.5v-352h241q31 0 49.5 -29t18.5 -67.5t-18.5 -67.5t-49.5 -29h-241v-149h241q31 0 49.5 -29t18.5 -67q0 -41 -18.5 -69t-49.5 -28h-241v-106q0 -59 25.5 -84t88.5 -25h80q53 0 83 -32.5t30 -77.5 q0 -47 -30 -80t-83 -33h-80q-379 0 -379 332z" />
<glyph unicode="&#x168;" horiz-adv-x="1216" d="M117 457v958q0 41 39 61.5t94 20.5t94 -20.5t39 -61.5v-958q0 -236 225.5 -236t225.5 236v958q0 41 38.5 61.5t94 20.5t94.5 -20.5t39 -61.5v-958q0 -242 -134.5 -355.5t-357.5 -113.5t-357 112.5t-134 356.5zM248 1798q0 57 37 91t70.5 41t68.5 7q59 0 147 -29.5 t144 -29.5q49 0 99 24.5t67 24.5q35 0 51 -30.5t16 -55.5q0 -45 -19.5 -74.5t-51 -43t-56 -17.5t-47.5 -4q-72 0 -158 29.5t-133 29.5q-49 0 -100 -24.5t-68 -24.5q-35 0 -51 30.5t-16 55.5z" />
<glyph unicode="&#x169;" d="M92 397v492q0 31 40 57.5t93 26.5q51 0 91 -26.5t40 -57.5v-492q0 -72 53.5 -128t127 -56t126 56.5t52.5 127.5v494q0 33 40 57.5t93 24.5q57 0 94 -24.5t37 -57.5v-494q0 -166 -131 -290.5t-311.5 -124.5t-312.5 124.5t-132 290.5zM186 1300q0 57 37 91t71 41.5t68 7.5 q59 0 147.5 -30t143.5 -30q49 0 99.5 25t66.5 25q35 0 51.5 -31t16.5 -56q0 -45 -19.5 -74.5t-51.5 -43t-56.5 -17.5t-46.5 -4q-72 0 -158 30t-133 30q-49 0 -100.5 -25t-67.5 -25q-35 0 -51.5 30.5t-16.5 55.5z" />
<glyph unicode="&#x16a;" horiz-adv-x="1216" d="M117 457v958q0 41 39 61.5t94 20.5t94 -20.5t39 -61.5v-958q0 -236 225.5 -236t225.5 236v958q0 41 38.5 61.5t94 20.5t94.5 -20.5t39 -61.5v-958q0 -242 -134.5 -355.5t-357.5 -113.5t-357 112.5t-134 356.5zM311 1833q0 37 22.5 62.5t59.5 25.5h420q33 0 58.5 -25.5 t25.5 -62.5t-25.5 -61.5t-58.5 -24.5h-420q-37 0 -59.5 23.5t-22.5 62.5z" />
<glyph unicode="&#x16b;" d="M92 397v492q0 31 40 57.5t93 26.5q51 0 91 -26.5t40 -57.5v-492q0 -72 53.5 -128t127 -56t126 56.5t52.5 127.5v494q0 33 40 57.5t93 24.5q57 0 94 -24.5t37 -57.5v-494q0 -166 -131 -290.5t-311.5 -124.5t-312.5 124.5t-132 290.5zM248 1335q0 37 22.5 62.5t59.5 25.5 h420q33 0 58.5 -25.5t25.5 -62.5t-26 -61.5t-58 -24.5h-420q-37 0 -59.5 23.5t-22.5 62.5z" />
<glyph unicode="&#x16c;" horiz-adv-x="1216" d="M117 457v958q0 41 39 61.5t94 20.5t94 -20.5t39 -61.5v-958q0 -236 225.5 -236t225.5 236v958q0 41 38.5 61.5t94 20.5t94.5 -20.5t39 -61.5v-958q0 -242 -134.5 -355.5t-357.5 -113.5t-357 112.5t-134 356.5zM330 1974h143q0 -66 39 -109.5t90 -43.5q49 0 89 44t40 109 h143q0 -109 -82.5 -190.5t-189 -81.5t-189.5 81.5t-83 190.5z" />
<glyph unicode="&#x16d;" d="M92 397v492q0 31 40 57.5t93 26.5q51 0 91 -26.5t40 -57.5v-492q0 -72 53.5 -128t127 -56t126 56.5t52.5 127.5v494q0 33 40 57.5t93 24.5q57 0 94 -24.5t37 -57.5v-494q0 -166 -131 -290.5t-311.5 -124.5t-312.5 124.5t-132 290.5zM266 1477h144q0 -66 38.5 -110 t90.5 -44q49 0 89 44t40 110h143q0 -109 -83 -191t-189.5 -82t-189.5 82t-83 191z" />
<glyph unicode="&#x16e;" horiz-adv-x="1216" d="M117 457v958q0 41 39 61.5t94 20.5t94 -20.5t39 -61.5v-958q0 -236 225.5 -236t225.5 236v958q0 41 38.5 61.5t94 20.5t94.5 -20.5t39 -61.5v-958q0 -242 -134.5 -355.5t-357.5 -113.5t-357 112.5t-134 356.5zM406 1870q0 80 58 141.5t140 61.5t142.5 -61.5t60.5 -141.5 q0 -82 -61.5 -144.5t-141.5 -62.5t-139 62.5t-59 144.5zM510 1868q0 -37 28.5 -68t67.5 -31q37 0 63.5 30t26.5 69q0 37 -26.5 64.5t-63.5 27.5q-39 0 -67.5 -28.5t-28.5 -63.5z" />
<glyph unicode="&#x16f;" d="M92 397v492q0 31 40 57.5t93 26.5q51 0 91 -26.5t40 -57.5v-492q0 -72 53.5 -128t127 -56t126 56.5t52.5 127.5v494q0 33 40 57.5t93 24.5q57 0 94 -24.5t37 -57.5v-494q0 -166 -131 -290.5t-311.5 -124.5t-312.5 124.5t-132 290.5zM334 1372q0 80 58.5 141.5t140 61.5 t142 -61.5t60.5 -141.5q0 -82 -61.5 -144.5t-141 -62.5t-139 62.5t-59.5 144.5zM438 1370q0 -37 29 -67.5t68 -30.5q37 0 63.5 29.5t26.5 68.5q0 37 -27 64.5t-63 27.5q-39 0 -68 -28.5t-29 -63.5z" />
<glyph unicode="&#x170;" horiz-adv-x="1216" d="M117 457v958q0 41 39 61.5t94 20.5t94 -20.5t39 -61.5v-958q0 -236 225.5 -236t225.5 236v958q0 41 38.5 61.5t94 20.5t94.5 -20.5t39 -61.5v-958q0 -242 -134.5 -355.5t-357.5 -113.5t-357 112.5t-134 356.5zM352 1735q0 18 15 32l172 181q14 16 39 16q29 0 53 -25.5 t24 -52.5q0 -20 -14 -35l-168 -176q-16 -18 -39 -18q-31 0 -56.5 24.5t-25.5 53.5zM674 1735q0 18 14 32l172 181q16 16 39 16q29 0 53.5 -25.5t24.5 -52.5q0 -20 -14 -35l-168 -176q-16 -18 -39 -18q-31 0 -56.5 24.5t-25.5 53.5z" />
<glyph unicode="&#x171;" d="M92 397v492q0 31 40 57.5t93 26.5q51 0 91 -26.5t40 -57.5v-492q0 -72 53.5 -128t127 -56t126 56.5t52.5 127.5v494q0 33 40 57.5t93 24.5q57 0 94 -24.5t37 -57.5v-494q0 -166 -131 -290.5t-311.5 -124.5t-312.5 124.5t-132 290.5zM281 1237q0 18 14 33l172 180 q14 16 39 16q29 0 53.5 -25.5t24.5 -51.5q0 -20 -15 -35l-168 -176q-16 -18 -39 -19q-31 0 -56 24.5t-25 53.5zM602 1237q0 18 14 33l172 180q16 16 39 16q29 0 53.5 -25.5t24.5 -51.5q0 -20 -14 -35l-168 -176q-16 -18 -39 -19q-31 0 -56.5 24.5t-25.5 53.5z" />
<glyph unicode="&#x172;" horiz-adv-x="1216" d="M117 457v958q0 41 39 61.5t94 20.5t94 -20.5t39 -61.5v-958q0 -236 225.5 -236t225.5 236v958q0 41 38.5 61.5t94 20.5t94.5 -20.5t39 -61.5v-958q0 -352 -293 -443q-70 -43 -115 -110.5t-45 -130.5q0 -96 123 -97q47 0 47 -59q0 -53 -59 -53q-115 0 -177.5 50t-62.5 134 q0 127 109 240h-19q-223 0 -357 112.5t-134 356.5z" />
<glyph unicode="&#x173;" d="M92 397v492q0 31 40 57.5t93 26.5q51 0 91 -26.5t40 -57.5v-492q0 -72 53.5 -128t127 -56t126 56.5t52.5 127.5v494q0 33 40 57.5t93 24.5q57 0 94 -24.5t37 -57.5v-494q0 -125 -77 -229.5t-197 -153.5q-70 -43 -115 -110.5t-45 -130.5q0 -96 123 -97q47 0 47 -59 q0 -53 -60 -53q-115 0 -177 50t-62 134q0 127 102 234q-176 8 -301 130.5t-125 284.5z" />
<glyph unicode="&#x174;" horiz-adv-x="1808" d="M18 1391q0 43 55.5 74.5t114.5 31.5q74 0 88 -53l324 -1110l174 713q18 74 131 73q111 0 129 -73l174 -713l324 1110q14 53 88 53q59 0 114.5 -31.5t55.5 -74.5q0 -12 -4 -25l-406 -1288q-31 -90 -174 -90q-61 0 -110 23.5t-60 66.5l-131 553l-133 -553 q-10 -43 -59 -66.5t-111 -23.5q-63 0 -112.5 23.5t-61.5 66.5l-405 1288q-5 13 -5 25zM612 1759q0 53 45 76l213 115q16 10 35 10q14 0 35 -10l213 -113q43 -27 43 -80q0 -31 -16.5 -55.5t-40.5 -24.5q-12 0 -21 6l-213 115l-213 -115q-12 -6 -22 -6q-25 0 -41.5 24.5 t-16.5 57.5z" />
<glyph unicode="&#x175;" horiz-adv-x="1419" d="M14 874q0 45 57.5 77t114.5 32q59 0 76 -43l205 -582l154 506q16 53 89.5 53.5t90.5 -53.5l151 -508l207 584q16 43 76 43q55 0 112.5 -32.5t57.5 -78.5q0 -23 -8 -36l-316 -811q-18 -47 -104 -48q-90 0 -109 48l-157 446l-156 -444q-18 -49 -113 -50q-84 0 -102 50 l-315 809q-11 20 -11 38zM420 1262q0 53 45 75l213 115q16 10 35 10q14 0 35 -10l213 -113q43 -27 43 -79q0 -31 -16.5 -55.5t-41.5 -24.5q-12 0 -20 6l-213 114l-213 -114q-12 -6 -23 -6q-25 0 -41 24.5t-16 57.5z" />
<glyph unicode="&#x176;" horiz-adv-x="1175" d="M18 1386q0 45 58.5 78t118.5 33q55 0 81 -53l312 -592l313 592q29 53 80 53q59 0 117.5 -32.5t58.5 -78.5q0 -16 -6 -26l-422 -733q-8 -12 -8 -27v-516q0 -39 -39 -61.5t-94 -22.5q-53 0 -93 22.5t-40 61.5v516q0 18 -6 27l-424 733q-7 16 -7 26zM297 1759q0 53 45 76 l213 115q16 10 35 10q14 0 35 -10l213 -113q43 -27 43 -80q0 -31 -16.5 -55.5t-41.5 -24.5q-12 0 -20 6l-213 115l-213 -115q-12 -6 -23 -6q-25 0 -41 24.5t-16 57.5z" />
<glyph unicode="&#x177;" horiz-adv-x="974" d="M12 -340q0 111 68 111q96 0 189 69.5t104 231.5l-353 753q-8 20 -8 35q0 49 60.5 88t115.5 39q61 0 76 -45l246 -612l199 612q14 45 69 45q53 0 116.5 -40t63.5 -91q0 -16 -6 -31l-299 -764l-35 -90q-25 -70 -36 -96.5t-38.5 -82.5t-49 -81.5t-60.5 -63.5t-79 -55.5 t-97 -31t-125 -13.5q-59 0 -90 22.5t-31 90.5zM219 1262q0 53 45 75l213 115q16 10 35 10q14 0 35 -10l213 -113q43 -27 43 -79q0 -31 -16.5 -55.5t-41.5 -24.5q-12 0 -20 6l-213 114l-213 -114q-12 -6 -23 -6q-25 0 -41 24.5t-16 57.5z" />
<glyph unicode="&#x178;" horiz-adv-x="1175" d="M18 1386q0 45 58.5 78t118.5 33q55 0 81 -53l312 -592l313 592q29 53 80 53q59 0 117.5 -32.5t58.5 -78.5q0 -16 -6 -26l-422 -733q-8 -12 -8 -27v-516q0 -39 -39 -61.5t-94 -22.5q-53 0 -93 22.5t-40 61.5v516q0 18 -6 27l-424 733q-7 16 -7 26zM332 1788 q0 43 30.5 74.5t73.5 31.5t73 -31.5t30 -74.5t-30 -76t-73 -33t-73.5 33t-30.5 76zM637 1788q0 43 30.5 74.5t75.5 31.5q41 0 72 -31.5t31 -74.5t-31 -76t-72 -33q-43 0 -74.5 33t-31.5 76z" />
<glyph unicode="&#x179;" horiz-adv-x="1069" d="M29 74q0 45 28 92l609 1098h-519q-39 0 -60 33.5t-21 82.5q0 47 20 82t61 35h779q80 0 80 -72q0 -45 -31 -96l-606 -1096h589q37 0 60.5 -35.5t23.5 -80.5t-23.5 -81t-60.5 -36h-849q-80 0 -80 74zM377 1761q0 45 35 64l270 131q20 4 27 4q33 0 57.5 -32t24.5 -68 q0 -45 -37 -62l-267 -129q-20 -8 -28 -8q-33 0 -57.5 32.5t-24.5 67.5z" />
<glyph unicode="&#x17a;" horiz-adv-x="894" d="M43 94q0 53 45 107l404 557h-355q-33 0 -55.5 31.5t-22.5 76.5t21.5 76t56.5 31h602q37 0 61.5 -23.5t24.5 -66.5q0 -57 -41 -111l-405 -557h401q33 0 55.5 -31.5t22.5 -77t-21.5 -76t-56.5 -30.5h-647q-45 0 -67.5 27.5t-22.5 66.5zM315 1264q0 47 35 63l271 131 q20 4 26 4q33 0 57.5 -31.5t24.5 -68.5q0 -45 -37 -62l-266 -129q-20 -8 -29 -8q-33 0 -57.5 33t-24.5 68z" />
<glyph unicode="&#x17b;" horiz-adv-x="1069" d="M29 74q0 45 28 92l609 1098h-519q-39 0 -60 33.5t-21 82.5q0 47 20 82t61 35h779q80 0 80 -72q0 -45 -31 -96l-606 -1096h589q37 0 60.5 -35.5t23.5 -80.5t-23.5 -81t-60.5 -36h-849q-80 0 -80 74zM451 1788q0 43 30.5 74.5t73.5 31.5t72.5 -31.5t29.5 -74.5t-29.5 -76 t-72.5 -33t-73.5 33t-30.5 76z" />
<glyph unicode="&#x17c;" horiz-adv-x="894" d="M43 94q0 53 45 107l404 557h-355q-33 0 -55.5 31.5t-22.5 76.5t21.5 76t56.5 31h602q37 0 61.5 -23.5t24.5 -66.5q0 -57 -41 -111l-405 -557h401q33 0 55.5 -31.5t22.5 -77t-21.5 -76t-56.5 -30.5h-647q-45 0 -67.5 27.5t-22.5 66.5zM348 1290q0 43 31 75t74 32t72.5 -32 t29.5 -75t-29.5 -75.5t-72.5 -32.5t-74 32.5t-31 75.5z" />
<glyph unicode="&#x17d;" horiz-adv-x="1069" d="M29 74q0 45 28 92l609 1098h-519q-39 0 -60 33.5t-21 82.5q0 47 20 82t61 35h779q80 0 80 -72q0 -45 -31 -96l-606 -1096h589q37 0 60.5 -35.5t23.5 -80.5t-23.5 -81t-60.5 -36h-849q-80 0 -80 74zM248 1917q0 31 16.5 55.5t40.5 24.5q14 0 25 -8l211 -136l209 136 q14 8 24 8q25 0 41 -24.5t16 -55.5q0 -51 -43 -78l-210 -135q-20 -12 -37 -12q-18 0 -37 12l-211 135q-45 27 -45 78z" />
<glyph unicode="&#x17e;" horiz-adv-x="894" d="M43 94q0 53 45 107l404 557h-355q-33 0 -55.5 31.5t-22.5 76.5t21.5 76t56.5 31h602q37 0 61.5 -23.5t24.5 -66.5q0 -57 -41 -111l-405 -557h401q33 0 55.5 -31.5t22.5 -77t-21.5 -76t-56.5 -30.5h-647q-45 0 -67.5 27.5t-22.5 66.5zM160 1419q0 31 16.5 55.5t40.5 24.5 q14 0 25 -8l211 -135l209 135q14 8 24 8q25 0 41 -24.5t16 -55.5q0 -51 -43 -78l-211 -135q-23 -12 -36 -12q-18 0 -37 12l-211 135q-45 27 -45 78z" />
<glyph unicode="&#x192;" horiz-adv-x="790" d="M-147 -164q0 53 25.5 91t64.5 38h45q76 0 102 189l137 1007q23 172 154 292t297 120h106q35 0 56.5 -32t21.5 -79q0 -53 -25.5 -87t-62.5 -34h-100q-76 0 -123 -49t-59 -131l-37 -250h254q33 0 50 -27.5t17 -66.5q0 -41 -18.5 -69.5t-50.5 -28.5h-281l-78 -565 q-25 -188 -116 -311.5t-248 -123.5h-52q-37 0 -58 34t-21 83z" />
<glyph unicode="&#x1fc;" horiz-adv-x="1611" d="M117 94v934q0 242 128 355.5t339 113.5h911q41 0 62.5 -33.5t21.5 -81.5q0 -49 -22.5 -83.5t-61.5 -34.5h-467v-410h244q39 0 61.5 -31.5t22.5 -74.5q0 -39 -21.5 -71t-62.5 -32h-244v-412h467q39 0 61.5 -34.5t22.5 -83.5q0 -47 -21.5 -81t-62.5 -34h-616 q-47 0 -82 22.5t-35 61.5v561h-393v-551q0 -47 -27 -70.5t-106 -23.5q-119 0 -119 94zM369 854h393v410h-178q-215 0 -215 -236v-174zM745 1755q0 47 35 64l271 131q20 4 26 4q33 0 57.5 -32t24.5 -69q0 -45 -37 -61l-266 -129q-20 -8 -29 -8q-33 0 -57.5 32.5t-24.5 67.5z " />
<glyph unicode="&#x1fd;" horiz-adv-x="1531" d="M45 252q0 168 123 235.5t354 67.5h82v29q0 76 -44 132t-136 56t-156.5 -32.5t-74.5 -32.5q-41 0 -67 40.5t-26 92.5q0 59 106.5 102t223.5 43q215 0 320 -160q125 160 303 160q172 0 298 -107.5t126 -283.5q0 -59 -14.5 -96t-44 -53.5t-58.5 -21.5t-76 -5h-414v-31 q0 -88 67 -142.5t171 -54.5q76 0 153.5 39t100.5 39q43 0 70.5 -40t27.5 -76q0 -59 -107.5 -114.5t-256.5 -55.5q-246 0 -379 196q-72 -92 -167 -144t-192 -52q-135 0 -224 69.5t-89 200.5zM309 287q0 -53 30 -81t79 -28q66 0 126 61.5t60 135.5v43h-31q-80 0 -131 -7.5 t-92 -38t-41 -85.5zM580 1264q0 47 34 63l271 131q20 4 26 4q33 0 57.5 -31.5t24.5 -68.5q0 -45 -37 -62l-266 -129q-20 -8 -28 -8q-33 0 -57.5 33t-24.5 68zM870 573h299q35 0 47.5 11.5t12.5 42.5q0 72 -52.5 118t-127.5 46q-74 0 -126.5 -44.5t-52.5 -115.5v-58z" />
<glyph unicode="&#x1fe;" horiz-adv-x="1173" d="M106 457v571q0 244 130.5 356.5t349.5 112.5q143 0 245 -47l43 86q23 43 74 43q39 0 71 -26.5t32 -65.5q0 -20 -9 -37l-59 -119q84 -117 84 -303v-571q0 -244 -131 -356.5t-350 -112.5q-147 0 -244 45l-35 -70q-23 -45 -80 -45q-43 0 -70.5 27.5t-27.5 62.5q0 18 10 35 l54 107q-87 114 -87 307zM373 516l348 709q-51 39 -135 39q-213 0 -213 -236v-512zM418 1761q0 45 35 64l270 131q20 4 27 4q33 0 57 -32t24 -68q0 -45 -36 -62l-267 -129q-20 -8 -28 -8q-33 0 -57.5 32.5t-24.5 67.5zM453 256q49 -35 133 -35q215 0 215 236v504z" />
<glyph unicode="&#x1ff;" horiz-adv-x="1019" d="M66 401v168q0 168 131 292t313 124q127 0 231 -63l70 98q16 25 41 24.5t43 -18.5t18 -41q0 -18 -14 -39l-68 -94q123 -123 123 -283v-168q0 -166 -133 -292.5t-311 -126.5q-133 0 -246 73l-71 -102q-12 -18 -35 -19q-20 0 -39 16.5t-19 39.5q0 12 13 33l69 100 q-116 122 -116 278zM330 401q0 -33 8 -57l266 379q-47 31 -94 31q-74 0 -127 -56.5t-53 -128.5v-168zM379 1264q0 47 35 63l270 131q20 4 27 4q33 0 57.5 -31.5t24.5 -68.5q0 -45 -37 -62l-267 -129q-20 -8 -28 -8q-33 0 -57.5 33t-24.5 68zM403 250q51 -37 107 -37 q72 0 126 57.5t54 130.5v168q0 29 -14 64z" />
<glyph unicode="&#x218;" horiz-adv-x="1069" d="M49 236q0 47 36 95t81 48q27 0 60.5 -24.5t65.5 -54.5t91 -54.5t131 -24.5q98 0 163.5 45t65.5 133q0 61 -35.5 109.5t-94 80.5t-128 61.5t-140.5 66.5t-129 83t-94 122.5t-36 175.5q0 109 44 191.5t118 128.5t157.5 67.5t178.5 21.5q53 0 112.5 -7t126 -23.5t108.5 -51 t42 -82.5q0 -45 -29 -93t-78 -48q-18 0 -100 39t-182 39q-111 0 -171.5 -42t-60.5 -116q0 -59 49.5 -103t122 -71.5t157.5 -69.5t157.5 -91.5t122 -142.5t49.5 -218q0 -213 -134.5 -328.5t-353.5 -115.5q-195 0 -334 80t-139 174zM346 -297q0 43 35 61l270 132q16 6 27 6 q33 0 57.5 -32t24.5 -69q0 -47 -37 -63l-266 -127q-20 -8 -29 -8q-33 0 -57.5 32.5t-24.5 67.5z" />
<glyph unicode="&#x219;" horiz-adv-x="847" d="M47 158q0 37 26.5 76.5t61.5 39.5q23 0 56.5 -22.5t89 -46t131.5 -23.5q150 0 149 88q0 49 -50 78t-121 47.5t-142.5 44t-121.5 86t-50 154.5q0 125 88 215t278 90q127 0 226.5 -39t99.5 -94q0 -35 -27.5 -81t-68.5 -46q-16 0 -89 29.5t-137 29.5q-70 0 -106.5 -28.5 t-36.5 -63.5t37 -57.5t91 -34.5t117.5 -33.5t118 -50.5t91.5 -89t37 -146q0 -139 -99.5 -219t-277.5 -80q-154 0 -262.5 53t-108.5 123zM223 -297q0 43 35 61l270 132q16 6 27 6q33 0 57.5 -32t24.5 -69q0 -47 -37 -63l-266 -127q-20 -8 -29 -8q-33 0 -57.5 32.5t-24.5 67.5 z" />
<glyph unicode="&#x2c6;" horiz-adv-x="583" d="M0 1262q0 53 45 75l213 115q16 10 35 10q14 0 35 -10l213 -113q43 -27 43 -79q0 -31 -16.5 -55.5t-41.5 -24.5q-10 0 -20 6l-213 114l-213 -114q-12 -6 -23 -6q-25 0 -41 24.5t-16 57.5z" />
<glyph unicode="&#x2c7;" horiz-adv-x="591" d="M4 1419q0 31 16.5 55.5t40.5 24.5q14 0 25 -8l211 -135l209 135q14 8 24 8q25 0 41.5 -24.5t16.5 -55.5q0 -51 -43 -78l-211 -135q-23 -12 -37 -12q-18 0 -37 12l-211 135q-45 27 -45 78z" />
<glyph unicode="&#x2d8;" horiz-adv-x="544" d="M0 1477h143q0 -66 39 -110t90 -44q49 0 89 44t40 110h144q0 -109 -83 -191t-189.5 -82t-189.5 82t-83 191z" />
<glyph unicode="&#x2d9;" horiz-adv-x="391" d="M100 1290q0 43 31 75t74 32t72.5 -32t29.5 -75t-29.5 -75.5t-72.5 -32.5t-74 32.5t-31 75.5z" />
<glyph unicode="&#x2da;" horiz-adv-x="401" d="M0 1372q0 80 58.5 141.5t140.5 61.5t142 -61.5t60 -141.5q0 -82 -61 -144.5t-141 -62.5t-139.5 62.5t-59.5 144.5zM104 1370q0 -37 29 -67.5t68 -30.5q37 0 63.5 29.5t26.5 68.5q0 37 -26.5 64.5t-63.5 27.5q-39 0 -68 -28.5t-29 -63.5z" />
<glyph unicode="&#x2db;" horiz-adv-x="299" d="M0 -252q0 84 52 167t141 138l96 -39q-70 -43 -115 -110.5t-45 -130.5q0 -96 123 -97q47 0 47 -59q0 -53 -59 -53q-115 0 -177.5 50t-62.5 134z" />
<glyph unicode="&#x2dc;" horiz-adv-x="700" d="M0 1300q0 57 37 91t70.5 41.5t68.5 7.5q61 0 149.5 -30t141.5 -30q49 0 99 25t67 25q35 0 51 -31t16 -56q0 -45 -19 -74.5t-51 -43t-56.5 -17.5t-47.5 -4q-72 0 -157.5 30t-132.5 30q-49 0 -100.5 -25t-67.5 -25q-35 0 -51.5 30.5t-16.5 55.5z" />
<glyph unicode="&#x2dd;" horiz-adv-x="624" d="M0 1237q0 18 14 33l172 180q14 16 39 16q29 0 53.5 -25.5t24.5 -51.5q0 -20 -14 -35l-168 -176q-16 -18 -39 -19q-31 0 -56.5 24.5t-25.5 53.5zM322 1237q0 18 14 33l172 180q16 16 39 16q29 0 53.5 -25.5t24.5 -51.5q0 -20 -15 -35l-168 -176q-16 -18 -39 -19 q-31 0 -56 24.5t-25 53.5z" />
<glyph unicode="&#x3c0;" horiz-adv-x="1105" d="M102 82v807q0 39 35 61.5t82 22.5h668q47 0 82 -22.5t35 -61.5v-807q0 -41 -39 -61.5t-94.5 -20.5t-94.5 20.5t-39 61.5v657h-370v-657q0 -41 -39 -61.5t-95 -20.5q-53 0 -92 20.5t-39 61.5z" />
<glyph unicode="&#x1e80;" horiz-adv-x="1808" d="M18 1391q0 43 55.5 74.5t114.5 31.5q74 0 88 -53l324 -1110l174 713q18 74 131 73q111 0 129 -73l174 -713l324 1110q14 53 88 53q59 0 114.5 -31.5t55.5 -74.5q0 -12 -4 -25l-406 -1288q-31 -90 -174 -90q-61 0 -110 23.5t-60 66.5l-131 553l-133 -553 q-10 -43 -59 -66.5t-111 -23.5q-63 0 -112.5 23.5t-61.5 66.5l-405 1288q-5 13 -5 25zM666 1860q0 37 24.5 68.5t57.5 31.5q6 0 26 -4l270 -131q35 -18 35 -64q0 -35 -24.5 -67.5t-57.5 -32.5q-8 0 -28 8l-267 129q-36 17 -36 62z" />
<glyph unicode="&#x1e81;" horiz-adv-x="1419" d="M14 874q0 45 57.5 77t114.5 32q59 0 76 -43l205 -582l154 506q16 53 89.5 53.5t90.5 -53.5l151 -508l207 584q16 43 76 43q55 0 112.5 -32.5t57.5 -78.5q0 -23 -8 -36l-316 -811q-18 -47 -104 -48q-90 0 -109 48l-157 446l-156 -444q-18 -49 -113 -50q-84 0 -102 50 l-315 809q-11 20 -11 38zM455 1362q0 37 24.5 68.5t57.5 31.5q6 0 26 -4l271 -131q35 -16 34 -63q0 -35 -24.5 -68t-57.5 -33q-8 0 -28 8l-266 129q-37 17 -37 62z" />
<glyph unicode="&#x1e82;" horiz-adv-x="1808" d="M18 1391q0 43 55.5 74.5t114.5 31.5q74 0 88 -53l324 -1110l174 713q18 74 131 73q111 0 129 -73l174 -713l324 1110q14 53 88 53q59 0 114.5 -31.5t55.5 -74.5q0 -12 -4 -25l-406 -1288q-31 -90 -174 -90q-61 0 -110 23.5t-60 66.5l-131 553l-133 -553 q-10 -43 -59 -66.5t-111 -23.5q-63 0 -112.5 23.5t-61.5 66.5l-405 1288q-5 13 -5 25zM731 1761q0 45 35 64l270 131q20 4 27 4q33 0 57.5 -32t24.5 -68q0 -45 -37 -62l-266 -129q-20 -8 -29 -8q-33 0 -57.5 32.5t-24.5 67.5z" />
<glyph unicode="&#x1e83;" horiz-adv-x="1419" d="M14 874q0 45 57.5 77t114.5 32q59 0 76 -43l205 -582l154 506q16 53 89.5 53.5t90.5 -53.5l151 -508l207 584q16 43 76 43q55 0 112.5 -32.5t57.5 -78.5q0 -23 -8 -36l-316 -811q-18 -47 -104 -48q-90 0 -109 48l-157 446l-156 -444q-18 -49 -113 -50q-84 0 -102 50 l-315 809q-11 20 -11 38zM551 1264q0 47 35 63l270 131q20 4 27 4q33 0 57.5 -31.5t24.5 -68.5q0 -45 -37 -62l-266 -129q-20 -8 -29 -8q-33 0 -57.5 33t-24.5 68z" />
<glyph unicode="&#x1e84;" horiz-adv-x="1808" d="M18 1391q0 43 55.5 74.5t114.5 31.5q74 0 88 -53l324 -1110l174 713q18 74 131 73q111 0 129 -73l174 -713l324 1110q14 53 88 53q59 0 114.5 -31.5t55.5 -74.5q0 -12 -4 -25l-406 -1288q-31 -90 -174 -90q-61 0 -110 23.5t-60 66.5l-131 553l-133 -553 q-10 -43 -59 -66.5t-111 -23.5q-63 0 -112.5 23.5t-61.5 66.5l-405 1288q-5 13 -5 25zM647 1788q0 43 31 74.5t74 31.5t72.5 -31.5t29.5 -74.5t-29.5 -76t-72.5 -33t-74 33t-31 76zM952 1788q0 43 31 74.5t76 31.5q41 0 71.5 -31.5t30.5 -74.5t-30.5 -76t-71.5 -33 q-43 0 -75 33t-32 76z" />
<glyph unicode="&#x1e85;" horiz-adv-x="1419" d="M14 874q0 45 57.5 77t114.5 32q59 0 76 -43l205 -582l154 506q16 53 89.5 53.5t90.5 -53.5l151 -508l207 584q16 43 76 43q55 0 112.5 -32.5t57.5 -78.5q0 -23 -8 -36l-316 -811q-18 -47 -104 -48q-90 0 -109 48l-157 446l-156 -444q-18 -49 -113 -50q-84 0 -102 50 l-315 809q-11 20 -11 38zM455 1290q0 43 30.5 75t73.5 32t73 -32t30 -75t-30 -75.5t-73 -32.5t-73.5 32.5t-30.5 75.5zM760 1290q0 43 30.5 75t75.5 32q41 0 72 -32t31 -75t-31 -75.5t-72 -32.5q-43 0 -74.5 32.5t-31.5 75.5z" />
<glyph unicode="&#x1ef2;" horiz-adv-x="1175" d="M18 1386q0 45 58.5 78t118.5 33q55 0 81 -53l312 -592l313 592q29 53 80 53q59 0 117.5 -32.5t58.5 -78.5q0 -16 -6 -26l-422 -733q-8 -12 -8 -27v-516q0 -39 -39 -61.5t-94 -22.5q-53 0 -93 22.5t-40 61.5v516q0 18 -6 27l-424 733q-7 16 -7 26zM348 1860 q0 37 24.5 68.5t57.5 31.5q6 0 27 -4l270 -131q35 -18 35 -64q0 -35 -24.5 -67.5t-57.5 -32.5q-8 0 -29 8l-266 129q-37 17 -37 62z" />
<glyph unicode="&#x1ef3;" horiz-adv-x="974" d="M12 -340q0 111 68 111q96 0 189 69.5t104 231.5l-353 753q-8 20 -8 35q0 49 60.5 88t115.5 39q61 0 76 -45l246 -612l199 612q14 45 69 45q53 0 116.5 -40t63.5 -91q0 -16 -6 -31l-299 -764l-35 -90q-25 -70 -36 -96.5t-38.5 -82.5t-49 -81.5t-60.5 -63.5t-79 -55.5 t-97 -31t-125 -13.5q-59 0 -90 22.5t-31 90.5zM231 1362q0 37 25 68.5t57 31.5q6 0 27 -4l270 -131q35 -16 35 -63q0 -35 -24.5 -68t-57.5 -33q-8 0 -28 8l-267 129q-37 17 -37 62z" />
<glyph unicode="&#x2000;" horiz-adv-x="1036" />
<glyph unicode="&#x2001;" horiz-adv-x="2073" />
<glyph unicode="&#x2002;" horiz-adv-x="1036" />
<glyph unicode="&#x2003;" horiz-adv-x="2073" />
<glyph unicode="&#x2004;" horiz-adv-x="691" />
<glyph unicode="&#x2005;" horiz-adv-x="518" />
<glyph unicode="&#x2006;" horiz-adv-x="345" />
<glyph unicode="&#x2007;" horiz-adv-x="345" />
<glyph unicode="&#x2008;" horiz-adv-x="259" />
<glyph unicode="&#x2009;" horiz-adv-x="414" />
<glyph unicode="&#x200a;" horiz-adv-x="115" />
<glyph unicode="&#x2010;" horiz-adv-x="845" d="M74 492q0 47 22.5 78.5t59.5 31.5h532q33 0 59.5 -32.5t26.5 -77.5q0 -47 -25.5 -78t-60.5 -31h-532q-37 0 -59.5 30t-22.5 79z" />
<glyph unicode="&#x2011;" horiz-adv-x="845" d="M74 492q0 47 22.5 78.5t59.5 31.5h532q33 0 59.5 -32.5t26.5 -77.5q0 -47 -25.5 -78t-60.5 -31h-532q-37 0 -59.5 30t-22.5 79z" />
<glyph unicode="&#x2012;" horiz-adv-x="845" d="M74 492q0 47 22.5 78.5t59.5 31.5h532q33 0 59.5 -32.5t26.5 -77.5q0 -47 -25.5 -78t-60.5 -31h-532q-37 0 -59.5 30t-22.5 79z" />
<glyph unicode="&#x2013;" horiz-adv-x="968" d="M74 492q0 47 22.5 78.5t59.5 31.5h655q33 0 59.5 -32.5t26.5 -77.5q0 -47 -25.5 -78t-60.5 -31h-655q-37 0 -59.5 30t-22.5 79z" />
<glyph unicode="&#x2014;" horiz-adv-x="1544" d="M74 492q0 47 22.5 78.5t59.5 31.5h1230q33 0 58.5 -32.5t25.5 -77.5q0 -47 -25.5 -78t-58.5 -31h-1230q-37 0 -59.5 30t-22.5 79z" />
<glyph unicode="&#x2018;" horiz-adv-x="376" d="M45 1184q0 37 115 301q14 33 53 33q31 0 59.5 -19.5t28.5 -50.5q0 -10 -6 -29l-49 -108q76 -41 76 -125q0 -57 -40 -98t-97.5 -41t-98.5 41t-41 96z" />
<glyph unicode="&#x2019;" horiz-adv-x="374" d="M57 1378q0 57 40 98.5t97.5 41.5t98.5 -41t41 -97q0 -37 -115 -301q-14 -33 -53 -32q-31 0 -59.5 19t-28.5 50q0 14 8 29l47 108q-76 41 -76 125z" />
<glyph unicode="&#x201a;" horiz-adv-x="395" d="M59 127q0 57 40 98t97.5 41t98.5 -41t41 -96q0 -37 -115 -299q-14 -35 -53 -35q-33 0 -60.5 19.5t-27.5 50.5q0 12 6 29l49 108q-76 41 -76 125z" />
<glyph unicode="&#x201c;" horiz-adv-x="757" d="M45 1184q0 37 115 301q14 33 53 33q33 0 60.5 -19.5t27.5 -50.5q0 -10 -6 -29l-49 -108q76 -41 76 -125q0 -57 -40 -98t-97.5 -41t-98.5 41t-41 96zM426 1184q0 37 115 301q14 33 53 33q31 0 59.5 -19.5t28.5 -50.5q0 -12 -8 -29l-47 -108q76 -41 75 -125 q0 -57 -39.5 -98t-97 -41t-98.5 41t-41 96z" />
<glyph unicode="&#x201d;" horiz-adv-x="755" d="M57 1378q0 57 40 98.5t97.5 41.5t98.5 -41t41 -97q0 -37 -115 -301q-14 -33 -53 -32q-31 0 -59.5 19t-28.5 50q0 14 8 29l47 108q-76 41 -76 125zM438 1378q0 57 40 98.5t97.5 41.5t98.5 -41t41 -97q0 -37 -115 -301q-14 -33 -53 -32q-33 0 -60.5 19t-27.5 50q0 14 6 29 l49 108q-76 41 -76 125z" />
<glyph unicode="&#x201e;" horiz-adv-x="776" d="M59 127q0 57 40 98t97.5 41t98.5 -41t41 -96q0 -37 -115 -299q-14 -35 -53 -35q-33 0 -60.5 19.5t-27.5 50.5q0 12 6 29l49 108q-76 41 -76 125zM438 127q0 57 41 98t98.5 41t98.5 -41t41 -96q0 -37 -115 -299q-16 -35 -55 -35q-31 0 -58.5 19.5t-27.5 50.5q0 18 6 29 l49 108q-78 41 -78 125z" />
<glyph unicode="&#x2020;" horiz-adv-x="903" d="M41 930q0 43 22.5 73.5t59.5 30.5l194 -12v393q0 33 39 57.5t95 24.5q51 0 92 -24.5t41 -57.5v-393l194 12q33 0 59.5 -30.5t26.5 -73.5q0 -45 -26.5 -74t-59.5 -29l-194 13v-785q0 -39 -41 -68.5t-92 -29.5q-55 0 -94.5 29.5t-39.5 68.5v785l-194 -13q-37 0 -59.5 29 t-22.5 74z" />
<glyph unicode="&#x2021;" horiz-adv-x="919" d="M49 494q0 43 22.5 73.5t59.5 30.5l195 -12v254l-195 -13q-37 0 -59.5 29t-22.5 74q0 43 22.5 73.5t59.5 30.5l195 -12v393q0 33 38.5 57.5t94.5 24.5q49 0 91 -24.5t42 -57.5v-393l194 12q33 0 58.5 -30.5t25.5 -73.5q0 -45 -25.5 -74t-58.5 -29l-194 13v-254l194 12 q33 0 58.5 -30.5t25.5 -73.5q0 -45 -25.5 -74t-58.5 -29l-194 12v-348q0 -39 -42 -68.5t-91 -29.5q-55 0 -94 29.5t-39 68.5v348l-195 -12q-37 0 -59.5 28t-22.5 75z" />
<glyph unicode="&#x2022;" horiz-adv-x="673" d="M68 614q0 102 80.5 180t189.5 78q106 0 187 -77.5t81 -180.5q0 -104 -80 -182t-188.5 -78t-189 78t-80.5 182z" />
<glyph unicode="&#x2026;" horiz-adv-x="1177" d="M57 127q0 57 40 98t100 41q55 0 96 -41t41 -98q0 -55 -41 -97t-96 -42q-59 0 -99.5 41t-40.5 98zM453 127q0 57 39.5 98t99.5 41q55 0 96 -41t41 -98q0 -55 -41 -97t-96 -42q-59 0 -99 41t-40 98zM844 127q0 57 40 98t99 41q55 0 96 -41t41 -98q0 -55 -41 -97t-96 -42 q-59 0 -99 41t-40 98z" />
<glyph unicode="&#x202f;" horiz-adv-x="414" />
<glyph unicode="&#x2030;" horiz-adv-x="2301" d="M51 936v297q0 137 80 200.5t213 63.5t212 -63.5t79 -200.5v-297q0 -137 -79 -200.5t-212 -63.5t-213 63.5t-80 200.5zM229 936q0 -111 115 -111q117 0 117 111v297q0 111 -117 110q-115 0 -115 -110v-297zM350 8q0 14 8 35l738 1493q23 43 73 43q39 0 71 -26.5t32 -65.5 q0 -20 -8 -37l-738 -1487q-18 -45 -80 -45q-41 0 -68.5 27.5t-27.5 62.5zM975 258v297q0 137 80 200.5t213 63.5t212 -63.5t79 -200.5v-297q0 -137 -79 -200.5t-212 -63.5q-293 0 -293 264zM1153 258q0 -111 115 -111q117 0 116 111v297q0 111 -116 111q-115 0 -115 -111 v-297zM1667 258v297q0 137 80 200.5t213 63.5t212 -63.5t79 -200.5v-297q0 -137 -79 -200.5t-212 -63.5q-293 0 -293 264zM1845 258q0 -111 115 -111q117 0 117 111v297q0 111 -117 111q-115 0 -115 -111v-297z" />
<glyph unicode="&#x2039;" horiz-adv-x="557" d="M49 565.5q0 14.5 5 27.5t20 38l22 39l150 278q18 35 76 35q61 0 112 -45t51 -88q0 -14 -6 -25l-137 -258l137 -256q6 -12 6 -26q0 -45 -51 -89t-115 -44q-55 0 -73 34l-150 279q-8 16 -22.5 38.5t-19.5 35t-5 27z" />
<glyph unicode="&#x203a;" horiz-adv-x="557" d="M72 285q0 14 6 26l137 256l-137 258q-6 10 -6 25q0 45 50 89t114 44q57 0 73 -35l152 -278l22 -39q14 -25 19.5 -38t5.5 -27.5t-5 -27t-19.5 -35t-22.5 -38.5l-152 -279q-16 -35 -73 -34q-63 0 -113.5 44t-50.5 89z" />
<glyph unicode="&#x2044;" horiz-adv-x="380" d="M-270 8q0 14 8 35l737 1493q20 43 74 43q37 0 69.5 -26.5t32.5 -65.5q0 -20 -8 -37l-737 -1487q-18 -45 -80 -45q-41 0 -68.5 27.5t-27.5 62.5z" />
<glyph unicode="&#x205f;" horiz-adv-x="518" />
<glyph unicode="&#x20ac;" horiz-adv-x="1261" d="M49 555q0 41 23.5 68.5t60.5 27.5h94v144h-94q-37 0 -60.5 25.5t-23.5 66.5t23.5 68.5t60.5 27.5h94v45q0 242 130 355.5t343 113.5q215 0 351.5 -106.5t136.5 -286.5q0 -72 -31 -96.5t-102 -24.5q-133 0 -133 78t-47.5 140.5t-163.5 62.5q-217 0 -217 -236v-45h192 q33 0 59.5 -28.5t26.5 -67.5t-26.5 -65.5t-59.5 -26.5h-192v-144h192q33 0 59.5 -28.5t26.5 -65.5q0 -41 -26.5 -67.5t-59.5 -26.5h-192v-35q0 -74 49 -140.5t170 -66.5q113 0 161 63.5t48 155.5q0 43 31.5 60.5t101.5 17.5q74 0 103.5 -25.5t29.5 -97.5 q0 -186 -136.5 -296.5t-351.5 -110.5q-223 0 -348 119.5t-125 320.5v35h-94q-37 0 -60.5 25.5t-23.5 66.5z" />
<glyph unicode="&#x2122;" horiz-adv-x="1378" d="M82 1505q0 68 45 68h442q45 0 45 -68q0 -27 -12 -47t-33 -20h-147v-416q0 -23 -21.5 -36t-50.5 -13q-76 0 -76 49v416h-147q-20 0 -32.5 20t-12.5 47zM655 1022v477q0 37 21.5 55.5t50.5 18.5q43 0 65.5 -15.5t47.5 -64.5l121 -250l120 250q25 49 47.5 64.5t65.5 15.5 q72 0 72 -74v-477q0 -23 -21.5 -36t-50.5 -13q-31 0 -52.5 13t-21.5 36v252l-112 -234q-16 -31 -49 -30.5t-48 30.5l-110 242v-260q0 -23 -21.5 -36t-52.5 -13q-29 0 -50.5 13t-21.5 36z" />
<glyph unicode="&#x2202;" horiz-adv-x="1054" d="M70 401v172q0 170 106.5 293t255.5 123q90 0 163 -45t105 -115q-12 250 -79.5 362t-210.5 112q-61 0 -126 -25t-79 -25q-41 0 -70 52.5t-29 87.5q0 47 99.5 91t224.5 44q106 0 197.5 -40t169 -128t123 -248t45.5 -379v-317q0 -170 -134.5 -302t-314.5 -132 q-176 0 -311 127.5t-135 291.5zM334 401q0 -74 55 -131t129 -57t128 57.5t54 130.5v174q0 78 -57 130.5t-129 52.5q-74 0 -127 -56.5t-53 -128.5v-172z" />
<glyph unicode="&#x2206;" horiz-adv-x="1210" d="M43 92q0 35 10 60l379 1259q31 98 174 98q141 0 172 -98l379 -1259q10 -25 10 -60q0 -92 -112 -92h-899q-113 0 -113 92zM348 233h514l-256 947z" />
<glyph unicode="&#x220f;" horiz-adv-x="1206" d="M123 82v1331q0 39 35 61.5t82 22.5h727q47 0 81.5 -22.5t34.5 -61.5v-1331q0 -41 -38.5 -61.5t-94 -20.5t-94.5 20.5t-39 61.5v1182h-430v-1182q0 -41 -39 -61.5t-94 -20.5q-53 0 -92 20.5t-39 61.5z" />
<glyph unicode="&#x2211;" horiz-adv-x="1062" d="M47 -365q0 53 31 111l416 770l-416 770q-31 57 -31 111q0 43 26.5 71.5t86.5 28.5h772q37 0 60.5 -36t23.5 -81t-23.5 -80.5t-60.5 -35.5h-557l303 -549q80 -141 80 -198.5t-80 -199.5l-303 -548h557q37 0 60.5 -36t23.5 -81t-23.5 -81t-60.5 -36h-772q-59 0 -86 28.5 t-27 71.5z" />
<glyph unicode="&#x221a;" horiz-adv-x="1404" d="M2 799q0 47 22.5 78.5t59.5 31.5h215q57 0 84 -94l160 -573l350 1269q6 25 27.5 43.5t48.5 18.5h360q33 0 59.5 -33t26.5 -78q0 -47 -25.5 -77.5t-60.5 -30.5h-207l-407 -1336q-12 -43 -61.5 -66.5t-110.5 -23.5q-141 0 -172 90l-224 672h-63q-37 0 -59.5 30t-22.5 79z " />
<glyph unicode="&#x221e;" horiz-adv-x="1843" d="M80 483.5q0 198.5 128 308t308 109.5q113 0 223.5 -65.5t180.5 -178.5q72 113 181 178.5t224 65.5q182 0 310 -109.5t128 -308t-128 -308t-312 -109.5q-113 0 -222.5 64.5t-180.5 176.5q-70 -113 -179.5 -177t-224.5 -64q-180 0 -308 109.5t-128 308zM313 483.5 q0 -98.5 58.5 -149.5t146.5 -51q90 0 178 52t135 148q-47 96 -135 148.5t-178 52.5q-88 0 -146.5 -51t-58.5 -149.5zM1012 483q47 -96 135 -148t176 -52t147.5 51t59.5 149.5t-59.5 149.5t-147.5 51t-176 -52.5t-135 -148.5z" />
<glyph unicode="&#x222b;" horiz-adv-x="731" d="M-2 -309q0 43 23.5 75.5t66.5 32.5q76 0 110.5 39t34.5 125v1213q0 356 420 356q29 0 55.5 -28.5t26.5 -69.5q0 -39 -20.5 -72t-61.5 -33q-86 0 -119.5 -38t-33.5 -126v-1200q0 -375 -400 -375q-43 0 -72.5 30t-29.5 71z" />
<glyph unicode="&#x2248;" horiz-adv-x="913" d="M106 334q0 59 38 95t72 43t67 7q61 0 149 -29.5t141 -29.5q49 0 100.5 24.5t67.5 24.5q33 0 49.5 -33t16.5 -59q0 -61 -37 -97t-69.5 -42.5t-65.5 -6.5q-72 0 -159 30t-134 30q-49 0 -100.5 -24.5t-67.5 -24.5q-35 0 -51.5 32.5t-16.5 59.5zM106 758q0 61 38 97t72 43 t67 7q61 0 149 -29.5t141 -29.5q49 0 100.5 23.5t67.5 23.5q33 0 49.5 -33t16.5 -59q0 -47 -19.5 -79t-51 -45t-55.5 -17.5t-46 -4.5q-72 0 -159 30t-134 30q-49 0 -100.5 -24.5t-67.5 -24.5q-35 0 -51.5 32.5t-16.5 59.5z" />
<glyph unicode="&#x2260;" horiz-adv-x="1024" d="M72 295q0 47 22.5 79t59.5 32h217l106 196h-323q-37 0 -59.5 30t-22.5 79q0 47 22.5 78.5t59.5 31.5h454l140 252q14 23 43 23q27 0 51 -20.5t24 -47.5q0 -8 -8 -29l-100 -178h112q31 0 57.5 -32.5t26.5 -77.5q0 -47 -25.5 -78t-58.5 -31h-243l-109 -196h352 q31 0 57.5 -33t26.5 -78q0 -47 -25.5 -78t-58.5 -31h-485l-115 -209q-12 -23 -38.5 -22.5t-49 20t-22.5 43.5q0 12 10 29l72 139h-88q-37 0 -59.5 30t-22.5 79z" />
<glyph unicode="&#x2264;" horiz-adv-x="905" d="M72 172q0 47 23.5 79t60.5 32h567q33 0 58.5 -32t25.5 -79t-25.5 -78t-58.5 -31h-567q-37 0 -60.5 30t-23.5 79zM72 739.5q0 71.5 55 98.5l528 268q20 10 35 10q43 0 80 -41t37 -86q0 -49 -45 -69l-383 -181l383 -180q45 -20 45 -70q0 -45 -37 -86t-80 -41q-18 0 -35 9 l-528 270q-55 27 -55 98.5z" />
<glyph unicode="&#x2265;" horiz-adv-x="905" d="M98 172q0 47 26 79t58 32h568q37 0 60.5 -32t23.5 -79q0 -49 -24 -79t-60 -30h-568q-33 0 -58.5 31t-25.5 78zM98 489q0 49 45 70l383 180l-383 181q-45 20 -45 69q0 45 37 86t80 41q18 0 35 -10l528 -268q55 -27 55.5 -98.5t-55.5 -98.5l-528 -270q-14 -8 -35 -9 q-43 0 -80 41t-37 86z" />
<glyph unicode="&#x25ca;" horiz-adv-x="1052" d="M43 749.5q0 57.5 78 198.5l278 502q35 63 127 63q88 0 125 -63l281 -502q78 -141 78 -198.5t-78 -198.5l-281 -502q-35 -63 -125 -63t-127 63l-278 502q-78 141 -78 198.5zM283 750l243 -455l244 455l-244 469z" />
<glyph unicode="&#x25fc;" horiz-adv-x="983" d="M0 0v983h983v-983h-983z" />
</font>
</defs>
</svg>
